ML
     
  Уважаемый Гость!
Вы можете поддержать проект и зарегистрироваться у наших партнеров - онлайн-стратегия MyLands. При регистрации в игре Вы получите код, который сможете активировать после регистрации на pirat.ca и получить 1000 дублонов.

Ваш код:
ef8b3e8cd07bec918273586d22e5aaf18e0ae925
 
     

Кука (Ярослав Чеважевский) [2007 г., драма, BDRip-AVC]

Ответить на тему
 
Автор
Сообщение

Пост 25-Ноя-2011 22:07

[Q] 

zyyx

--Кука
«Кино про любовь...»
-- Год выпуска: 2007
Российская премьера: 13 октября 2011, «Наше Кино»
Дата выхода Blu-Ray: 22 ноября 2011, «Lizard Cinema Trade»
Страна: Россия
Жанр: драма
Продолжительность: 01:44:37
Перевод: Не требуется [Лицензия]
Режиссер: Ярослав Чеважевский
В ролях: Дина Корзун, Павел Деревянко, Марина Голуб, Александр Половцев, Дмитрий Дюжев, Юрий Колокольников, Андрей Ильин, Анна Ардова, Игорь Савочкин, Ирина Купченко
Описание: Лене 38 лет. Жизнь, казалось бы, налажена — Москва, карьера, «престижный» бойфренд… Но Лена сознает, что это — путь в никуда, что при внешнем благополучии она потеряла что-то очень важное и что пришла пора, наконец, пересмотреть свою жизнь. Либо сейчас, либо уже никогда…
Кука живет в Петербурге совершенно одна. Она очень смышленая и очень взрослая. Кука все делает сама — и в магазин ходит, и еду готовит, и за домом следит. Кука смелая. Куке — 6 лет. Однажды Лена и Кука встречаются…-Сэмпл | IMDB | КиноПоиск-Источник/Качество: BDRip-AVC
Формат: MKV
Видео кодек: H.26x
Аудио кодек: AC3
Видео: 1024 x 576, 23,976 кадра/сек, 2500 Кбит/сек 0.177 бит/п
Аудио: 48,0 КГц, 6 каналов, 448 Кбит/сек
Общее
Уникальный идентификатор : 175323631922075411270354677795483900286 (0x83E61A6FC143E5409418AAA5DAE1597E)
Полное имя : F:\pirat.ca\Kuka.2007.x264.BDRip.(AVC).ExKinoRay.mkv
Формат : Matroska
Версия формата : Version 1
Размер файла : 2,16 Гбайт
Продолжительность : 1 ч. 44 м.
Общий поток : 2950 Кбит/сек
Дата кодирования : UTC 2011-11-24 16:57:55
Программа кодирования : mkvmerge v2.5.3 ('Boogie') built on Mar 7 2009 15:00:41
Библиотека кодирования : libebml v0.7.7 + libmatroska v0.8.1
Видео
Идентификатор : 1
Формат : AVC
Формат/Информация : Advanced Video Codec
Профиль формата : [email protected]
Параметр CABAC формата : Да
Параметр ReFrames формата : 4 кадра
Идентификатор кодека : V_MPEG4/ISO/AVC
Продолжительность : 1 ч. 44 м.
Битрейт : 2500 Кбит/сек
Ширина : 1024 пикселя
Высота : 576 пикселей
Соотношение сторон : 16:9
Частота кадров : 23,976 кадра/сек
Цветовое пространство : YUV
Субдискретизация насыщенности : 4:2:0
Битовая глубина : 8 бит
Тип развёртки : Прогрессивная
Бит/(Пиксели*Кадры) : 0.177
Размер потока : 1,79 Гбайт (83%)
Библиотека кодирования : x264 core 116 r2074 2641b9e
Настройки программы : cabac=1 / ref=3 / deblock=1:-3:-3 / analyse=0x3:0x113 / me=hex / subme=7 / psy=1 / psy_rd=1.00:0.10 / mixed_ref=1 / me_range=16 / chroma_me=1 / trellis=1 / 8x8dct=1 / cqm=0 / deadzone=21,11 / fast_pskip=1 / chroma_qp_offset=-3 / threads=6 / sliced_threads=0 / nr=0 / decimate=1 / interlaced=0 / bluray_compat=0 / constrained_intra=0 / bframes=3 / b_pyramid=2 / b_adapt=1 / b_bias=0 / direct=1 / weightb=1 / open_gop=0 / weightp=2 / keyint=250 / keyint_min=23 / scenecut=40 / intra_refresh=0 / rc_lookahead=40 / rc=2pass / mbtree=1 / bitrate=2500 / ratetol=1.0 / qcomp=0.60 / qpmin=10 / qpmax=51 / qpstep=4 / cplxblur=20.0 / qblur=0.5 / ip_ratio=1.40 / aq=1:1.00
Язык : English
Аудио
Идентификатор : 2
Формат : AC-3
Формат/Информация : Audio Coding 3
Расширение режима : CM (complete main)
Идентификатор кодека : A_AC3
Продолжительность : 1 ч. 44 м.
Вид битрейта : Постоянный
Битрейт : 448 Кбит/сек
Каналы : 6 каналов
Расположение каналов : Front: L C R, Side: L R, LFE
Частота : 48,0 КГц
Битовая глубина : 16 бит
Метод сжатия : С потерями
Размер потока : 335 Мбайт (15%)





Download / Скачать

Хотите скачать бесплатно? Зарегистрируйтесь на сайте (ссылка на регистрацию). Pirat.ca - самый быстрый торрент трекер в рунете!

Как скачивать  ·   Что такое торрент  ·   Рейтинг и ограничения

Пост 25-Ноя-2011 22:12 (спустя 5 минут)

Топик был перенесен из форума Наше Кино в форум Российские фильмы

Skinwalker
 

Filimonia

Корсар

Пост 26-Ноя-2011 01:10 (спустя 3 часа)

[Q] 

Спасибо за фильм!
[Профиль]  [ЛС] 

U-858

Флибустьер

Пост 20-Авг-2012 19:53 (спустя 8 месяцев 24 дня)

[Q] 

[Профиль]  [ЛС] 

xdgx

Флибустьер

Пост 25-Ноя-2012 17:28 (спустя 3 месяца 4 дня)

[Q] 

[Профиль]  [ЛС] 

U-858

Флибустьер

Пост 15-Мар-2014 23:09 (спустя 1 год 3 месяца)

[Q] 

Фильм супер!!!!!!!!!!!!!!!!!!!!!!!!!!!!!!!!!!
[Профиль]  [ЛС] 
Показать сообщения:    
Ответить на тему

Текущее время: Сегодня 18:36

Часовой пояс: GMT + 4



Вы не можете начинать темы
Вы не можете отвечать на сообщения
Вы не можете редактировать свои сообщения
Вы не можете удалять свои сообщения
Вы не можете голосовать в опросах
Вы не можете прикреплять файлы к сообщениям
Вы не можете скачивать файлы

▼ Вниз