ML
     
  Уважаемый Гость!
Вы можете поддержать проект и зарегистрироваться у наших партнеров - онлайн-стратегия MyLands. При регистрации в игре Вы получите код, который сможете активировать после регистрации на pirat.ca и получить 1000 дублонов.

Ваш код:
156f85568ae63e45e07ac461c96a83ba1a876b0a
 
     

Елена (Андрей Звягинцев) [2011 г., драма, мелодрама, DVDRip-AVC]

Ответить на тему
 
Автор
Сообщение

Пост 26-Ноя-2011 21:54

[Q] 

zyyx

--Елена-- Год выпуска: 2011
Мировая премьера: 21 мая 2011
Российская премьера: 29 сентября 2011, «Нон-Стоп Продакшн»
Дата выхода DVD: 23 ноября 2011, «Кармен Видео»
Дата выхода Blu-Ray: 30 ноября 2011, «Кармен Видео»
Страна: Россия
Жанр: драма, мелодрама
Продолжительность: 01:44:51
Перевод: Не требуется [Лицензия]
Режиссер: Андрей Звягинцев
В ролях: Андрей Смирнов, Надежда Маркина, Елена Лядова, Алексей Розин, Игорь Огурцов, Евгения Конушкина, Юрий Борисов, Рустам Ахмадеев, Анна Гуляренко, Василий Мичков
Описание: История пожилой семейной пары Елены и Владимира. Богатый и скупой Владимир относится к Елене скорее как к служанке, чем к жене. У обоих есть дети от первого брака: у Елены — сын, у Владимира — дочь. Её сын — безработный, который не может прокормить свою жену и двоих детей, они живут только на деньги, которые дает им Елена. Дочь Владимира — богемная девушка.
Владимир попадает в больницу с сердечным приступом. Там его навещает дочь, с которой у него никогда не было хороших отношений, но ее визит все меняет. Выйдя из больницы, Владимир объявляет Елене, что он решил изменить завещание — все деньги получит его дочь, а Елене достанется лишь небольшая пожизненная рента и она не сможет помочь своему сыну. Скромная и послушная Елена решается на отчаянный поступок.-IMDB | КиноПоиск-Источник/Качество: DVDRip-AVC
Формат: MKV
Видео кодек: H.26x
Аудио кодек: AC3
Видео: [email protected] (2,37:1); 25,000 fps; 2461 kbps; 0.316 bit/pixel
Аудио: AC3, 6 ch., 48 kHz, ~384.00 kbps
Общее
Уникальный идентификатор : 243307354740470442535891721471397574822 (0xB70B4AC1B84F247A9DEBF4780D79B8A6)
Полное имя : F:\pirat.ca\Elena.2011.DVDRip.x264.potroks.mkv
Формат : Matroska
Версия формата : Version 2
Размер файла : 2,08 Гбайт
Продолжительность : 1 ч. 44 м.
Общий поток : 2846 Кбит/сек
Название фильма : -=POTROKS=-
Дата кодирования : UTC 2011-11-26 15:23:37
Программа кодирования : mkvmerge v5.0.1 ('Es ist Sommer') built on Oct 9 2011 11:55:43
Библиотека кодирования : libebml v1.2.2 + libmatroska v1.3.0
Видео
Идентификатор : 1
Формат : AVC
Формат/Информация : Advanced Video Codec
Профиль формата : [email protected]
Параметр CABAC формата : Да
Параметр ReFrames формата : 9 кадров
Идентификатор кодека : V_MPEG4/ISO/AVC
Продолжительность : 1 ч. 44 м.
Битрейт : 2461 Кбит/сек
Ширина : 720 пикселей
Высота : 432 пикселя
Соотношение сторон : 2,35:1
Соотношение сторон в оригинале : 16:9
Частота кадров : 25,000 кадров/сек
Цветовое пространство : YUV
Субдискретизация насыщенности : 4:2:0
Битовая глубина : 8 бит
Тип развёртки : Прогрессивная
Бит/(Пиксели*Кадры) : 0.316
Размер потока : 1,76 Гбайт (85%)
Заголовок : Elena.2011.DVDRip.x264.potroks
Библиотека кодирования : x264 core 115 r1937 aa21558
Настройки программы : cabac=1 / ref=9 / deblock=1:-3:-2 / analyse=0x3:0x133 / me=umh / subme=10 / psy=1 / psy_rd=1.00:0.10 / mixed_ref=1 / me_range=24 / chroma_me=1 / trellis=2 / 8x8dct=1 / cqm=0 / deadzone=21,11 / fast_pskip=1 / chroma_qp_offset=-3 / threads=9 / sliced_threads=0 / nr=0 / decimate=1 / interlaced=0 / bluray_compat=0 / constrained_intra=0 / bframes=5 / b_pyramid=2 / b_adapt=2 / b_bias=0 / direct=3 / weightb=1 / open_gop=0 / weightp=2 / keyint=250 / keyint_min=25 / scenecut=40 / intra_refresh=0 / rc_lookahead=60 / rc=2pass / mbtree=1 / bitrate=2461 / ratetol=1.0 / qcomp=0.60 / qpmin=0 / qpmax=69 / qpstep=4 / cplxblur=20.0 / qblur=0.5 / ip_ratio=1.40 / aq=1:1.50
Язык : Russian
Аудио
Идентификатор : 2
Формат : AC-3
Формат/Информация : Audio Coding 3
Расширение режима : CM (complete main)
Идентификатор кодека : A_AC3
Продолжительность : 1 ч. 44 м.
Вид битрейта : Постоянный
Битрейт : 384 Кбит/сек
Каналы : 6 каналов
Расположение каналов : Front: L C R, Side: L R, LFE
Частота : 48,0 КГц
Битовая глубина : 16 бит
Метод сжатия : С потерями
Задержка видео : 6 мс.
Размер потока : 288 Мбайт (13%)
Заголовок : Оригинал
Язык : Russian








Download / Скачать

Хотите скачать бесплатно? Зарегистрируйтесь на сайте (ссылка на регистрацию). Pirat.ca - самый быстрый торрент трекер в рунете!

Как скачивать  ·   Что такое торрент  ·   Рейтинг и ограничения

Пост 27-Ноя-2011 13:59 (спустя 16 часов)

Топик был перенесен из форума Наше Кино в форум Новинки (HD|DVD|BD|TV|SAT|PDTV| - Rips)

Skinwalker
 
Показать сообщения:    
Ответить на тему

Текущее время: Сегодня 21:57

Часовой пояс: GMT + 4



Вы не можете начинать темы
Вы не можете отвечать на сообщения
Вы не можете редактировать свои сообщения
Вы не можете удалять свои сообщения
Вы не можете голосовать в опросах
Вы не можете прикреплять файлы к сообщениям
Вы не можете скачивать файлы

▼ Вниз