ML
     
  Уважаемый Гость!
Вы можете поддержать проект и зарегистрироваться у наших партнеров - онлайн-стратегия MyLands. При регистрации в игре Вы получите код, который сможете активировать после регистрации на pirat.ca и получить 1000 дублонов.

Ваш код:
21acd5966619d49ad0b90c3305467b4646cc11a8
 
     

Люблю 9 марта! (Сергей Крутин) [2010 г., мелодрама, DVDRip]

Ответить на тему
 
Автор
Сообщение

Пост 27-Ноя-2011 12:18

[Q] 

zyyx

--Люблю 9 марта!-- Год выпуска: 2010
Мировая премьера: 13 ноября 2010
Дата выхода DVD: 1 сентября 2011, «Новый Диск»
Страна: Россия
Студия: Кинокомпания "Пирамида"
Жанр: мелодрама
Продолжительность: 01:15:44
Перевод: Не требуется [Лицензия]
Режиссер: Сергей Крутин
В ролях: Марина Зудина, Любовь Толкалина, Виктория Малекторович, Георгий Делиев, Сергей Чонишвили, Инна Цымбалюк, Павел Шмарёв, Сергей Пиоро, Евгений Юхновец, Валерий Бассэль
Описание: Катя — успешная писательница, выпускающая одну за другой книги по психологии семейных отношений. В предвкушении романтического ужина с мужем Алексеем, Катя находит дома бархатную коробочку с кольцом, которое, скорее всего, вечером преподнесет ей любимый. Но это не единственный сюрприз, который ожидает ее в этот праздничный день. Утром, зайдя в магазин, Катя сталкивается с Мишей, своей институтской любовью. Двадцать лет назад они расстались по глупости и упрямству, как это бывает в юности…-Сэмпл | КиноПоиск-Источник/Качество: DVDRip
Формат: AVI
Видео кодек: XviD
Аудио кодек: AC3
Видео: 720x400 (1.80:1), 25 fps, XviD build 50 ~1990 kbps avg, 0.28 bit/pixel
Аудио: 48 kHz, AC3 Dolby Digital, 2/0 (L,R) ch, ~192 kbps
Общее
Полное имя : F:\pirat.ca\Люблю 9 марта!.2010.DVDRip.XviD.JRG.avi
Формат : AVI
Формат/Информация : Audio Video Interleave
Размер файла : 1,16 Гбайт
Продолжительность : 1 ч. 15 м.
Общий поток : 2192 Кбит/сек
Название фильма : Люблю 9 марта!.2010.DVDRip.XviD.JRG
Программа кодирования : VirtualDubMod 1.5.10.3 | www.virtualdub-fr.org || (build 2550/release)
Правообладатель : R.G. Jolly Roger [Pirat.CA]
Видео
Идентификатор : 0
Формат : MPEG-4 Visual
Профиль формата : Advanced [email protected]
Параметр BVOP формата : 2
Параметр QPel формата : Нет
Параметр GMC формата : Без точки перехода
Параметр матрицы формата : Выборочная
Идентификатор кодека : XVID
Идентификатор кодека/Подсказка : XviD
Продолжительность : 1 ч. 15 м.
Битрейт : 1991 Кбит/сек
Ширина : 720 пикселей
Высота : 400 пикселей
Соотношение сторон : 16:9
Частота кадров : 25,000 кадров/сек
Цветовое пространство : YUV
Субдискретизация насыщенности : 4:2:0
Битовая глубина : 8 бит
Тип развёртки : Прогрессивная
Метод сжатия : С потерями
Бит/(Пиксели*Кадры) : 0.276
Размер потока : 1,05 Гбайт (91%)
Библиотека кодирования : XviD 1.2.1 (UTC 2008-12-04)
Аудио
Идентификатор : 1
Формат : AC-3
Формат/Информация : Audio Coding 3
Расширение режима : CM (complete main)
Идентификатор кодека : 2000
Продолжительность : 1 ч. 15 м.
Вид битрейта : Постоянный
Битрейт : 192 Кбит/сек
Каналы : 2 канала
Расположение каналов : Front: L R
Частота : 48,0 КГц
Битовая глубина : 16 бит
Метод сжатия : С потерями
Размер потока : 104 Мбайт (9%)
Выравнивание : Разделение по промежуткам
Продолжительность промежутка : 40 мс. (1,00 видеокадр)
Время предзагрузки промежутка : 500 мс.











Download / Скачать

Хотите скачать бесплатно? Зарегистрируйтесь на сайте (ссылка на регистрацию). Pirat.ca - самый быстрый торрент трекер в рунете!

Как скачивать  ·   Что такое торрент  ·   Рейтинг и ограничения



Последний раз редактировалось: zyyx (2011-11-28 11:37), всего редактировалось 1 раз

Пост 27-Ноя-2011 13:58 (спустя 1 час 39 минут)

Топик был перенесен из форума Наше Кино в форум Российские фильмы

Skinwalker
 
Показать сообщения:    
Ответить на тему

Текущее время: Сегодня 23:18

Часовой пояс: GMT + 4



Вы не можете начинать темы
Вы не можете отвечать на сообщения
Вы не можете редактировать свои сообщения
Вы не можете удалять свои сообщения
Вы не можете голосовать в опросах
Вы не можете прикреплять файлы к сообщениям
Вы не можете скачивать файлы

▼ Вниз