ML
     
  Уважаемый Гость!
Вы можете поддержать проект и зарегистрироваться у наших партнеров - онлайн-стратегия MyLands. При регистрации в игре Вы получите код, который сможете активировать после регистрации на pirat.ca и получить 1000 дублонов.

Ваш код:
8b29d0f8cd61fe457e59e7df0aa1fab41a2b88b9
 
     

Дом (Олег Погодин) [2011 г., драма, криминал, DVDRip]

Ответить на тему
 
Автор
Сообщение

Пост 27-Ноя-2011 12:48

[Q] 

zyyx

--Дом-- Год выпуска: 2011
Мировая премьера: 10 ноября 2011
Российская премьера: 3 ноября 2011, «Централ Партнершип»
Дата выхода DVD: 1 декабря 2011, «Новый Диск»
Дата выхода Blu-Ray: Декабрь 2011, «Новый Диск»
Страна: Россия
Жанр: драма, криминал
Продолжительность: 02:07:02
Перевод: Не требуется [Лицензия]
Режиссер: Олег Погодин
В ролях: Сергей Гармаш, Богдан Ступка, Екатерина Редникова, Владимир Епифанцев, Лариса Малеванная, Петр Зайченко, Иван Добронравов, Игорь Савочкин, Глеб Подгородинский, Владимир Бадов...
Описание: В большом доме, посреди донских степей, живёт семейство Шамановых. Всё есть в этом доме, — кроме покоя, любви и взаимопонимания. Отцы конфликтуют с детьми, дети с отцами и друг с другом. Старший сын, Виктор, возвращается в отчий дом после 25-летнего отсутствия. Пока еще он не знает, что по пятам за ним идёт группа профессиональных убийц…-Сэмпл | IMDB | КиноПоиск-Источник/Качество: DVDRip
Формат: AVI
Видео кодек: XviD
Аудио кодек: AC3
Видео: 720x304 (2.37:1), 25 fps, XviD MPEG-4, 1859 kbps avg, 0.34 bit/pixel
Аудио: 48 kHz, AC3 Dolby Digital, 3/2 (L,C,R,l,r) + LFE ch, 448 kbps
Общее
Полное имя : F:\pirat.ca\Дом.avi
Формат : AVI
Формат/Информация : Audio Video Interleave
Профиль формата : OpenDML
Размер файла : 2,05 Гбайт
Продолжительность : 2 ч. 7 м.
Общий поток : 2315 Кбит/сек
Программа кодирования : VirtualDubMod 1.5.10.3 | www.virtualdub-fr.org || (build 2550/release)
Библиотека кодирования : VirtualDubMod build 2550/release
Видео
Идентификатор : 0
Формат : MPEG-4 Visual
Профиль формата : Advanced [email protected]
Параметр BVOP формата : 2
Параметр QPel формата : Нет
Параметр GMC формата : Без точки перехода
Параметр матрицы формата : Default (H.263)
Режим смешивания : Сжатый битовый поток
Идентификатор кодека : XVID
Идентификатор кодека/Подсказка : XviD
Продолжительность : 2 ч. 7 м.
Битрейт : 1854 Кбит/сек
Ширина : 720 пикселей
Высота : 304 пикселя
Соотношение сторон : 2,35:1
Частота кадров : 25,000 кадров/сек
Цветовое пространство : YUV
Субдискретизация насыщенности : 4:2:0
Битовая глубина : 8 бит
Тип развёртки : Прогрессивная
Метод сжатия : С потерями
Бит/(Пиксели*Кадры) : 0.339
Размер потока : 1,65 Гбайт (80%)
Библиотека кодирования : XviD 64
Аудио
Идентификатор : 1
Формат : AC-3
Формат/Информация : Audio Coding 3
Расширение режима : CM (complete main)
Идентификатор кодека : 2000
Продолжительность : 2 ч. 7 м.
Вид битрейта : Постоянный
Битрейт : 448 Кбит/сек
Каналы : 6 каналов
Расположение каналов : Front: L C R, Side: L R, LFE
Частота : 48,0 КГц
Битовая глубина : 16 бит
Метод сжатия : С потерями
Размер потока : 407 Мбайт (19%)
Выравнивание : Разделение по промежуткам
Продолжительность промежутка : 40 мс. (1,00 видеокадр)
Время предзагрузки промежутка : 500 мс.


Download / Скачать

Хотите скачать бесплатно? Зарегистрируйтесь на сайте (ссылка на регистрацию). Pirat.ca - самый быстрый торрент трекер в рунете!

Как скачивать  ·   Что такое торрент  ·   Рейтинг и ограничения

Пост 27-Ноя-2011 13:57 (спустя 1 час 9 минут)

Топик был перенесен из форума Наше Кино в форум Новинки (HD|DVD|BD|TV|SAT|PDTV| - Rips)

Skinwalker
 

klaus38

Штурман

Пост 12-Авг-2013 19:00 (спустя 1 год 8 месяцев)

[Q] 

Подраздаю! сильный фильм!
[Профиль]  [ЛС] 

xoxa-x1

Лоцман

Пост 26-Авг-2013 05:51 (спустя 13 дней)

[Q] 

говорят фильм хорош, качаю
[Профиль]  [ЛС] 

viktor41

Шкипер

Пост 02-Ноя-2013 15:45 (спустя 2 месяца 7 дней)

[Q] 

zyyx, Спасибо ! Сильный фильм . Автору респект!!! Всем качать!!!
[Профиль]  [ЛС] 
Показать сообщения:    
Ответить на тему

Текущее время: Сегодня 21:26

Часовой пояс: GMT + 4



Вы не можете начинать темы
Вы не можете отвечать на сообщения
Вы не можете редактировать свои сообщения
Вы не можете удалять свои сообщения
Вы не можете голосовать в опросах
Вы не можете прикреплять файлы к сообщениям
Вы не можете скачивать файлы

▼ Вниз