ML
     
  Уважаемый Гость!
Вы можете поддержать проект и зарегистрироваться у наших партнеров - онлайн-стратегия MyLands. При регистрации в игре Вы получите код, который сможете активировать после регистрации на pirat.ca и получить 1000 дублонов.

Ваш код:
2fd4e750dd89cae3a36ea360f2b345ccfeb562d3
 
     

Счастье мое (Сергей Лозница) [2010 г., драма, DVDRip-AVC]

Ответить на тему
 
Автор
Сообщение

Пост 27-Ноя-2011 13:44

[Q] 

zyyx

--Счастье мое-- Год выпуска: 2010
Мировая премьера: 19 мая 2010
Российская премьера: 31 марта 2011, «P&I Films»
Дата выхода DVD: 13 октября 2011, «Мистерия Звука»
Страна: Германия, Нидерланды, Украина
Жанр: драма
Продолжительность: 02:02:51
Перевод: Не требуется [Лицензия]
Режиссер: Сергей Лозница
В ролях: Виктор Немец, Павел Ворожцов, Владимир Головин, Дмитрий Готсдинер, Галина Попова, Алиса Слепян, Тимофей Трибунцев, Павел Чукреев, Ольга Шувалова, Алексей Вертков, Борис Каморзин, Мария Варсами, Влад Иванов, Дмитрий Быковский-Ромашов, Дмитрий Муляр
Описание: Действие фильма происходит в постсоветской глубинке. Водитель-дальнобойщик Георгий оставляет дома неверную жену и отправляется в очередной рейс. Его грузовик медленно движется к цели, а сам он совершает погружение в мир страха, жестокости и предательства.-Сэмпл | КиноПоиск-Источник/Качество: DVDRip-AVC
Формат: MKV
Видео кодек: H.26x
Аудио кодек: AC3
Видео: 1024x432, 25,000 кадров/сек, 1335 Кбит/сек
Аудио: 48,0 КГц, 2 канала, 256 Кбит/сек
Общее
Уникальный идентификатор : 183998320647129962058900891914377839978 (0x8A6CC99C8EB55C8BBB736297446B456A)
Полное имя : F:\pirat.ca\Schaste.moe.2010.x264.DVDRip.(AVC).olegek70.mkv
Формат : Matroska
Версия формата : Version 2
Размер файла : 1,37 Гбайт
Продолжительность : 2 ч. 2 м.
Общий поток : 1592 Кбит/сек
Дата кодирования : UTC 2011-11-26 17:24:34
Программа кодирования : mkvmerge v4.6.0 ('Still Crazy After All These Years') сборка от Apr 1 2011 21:01:49
Библиотека кодирования : libebml v1.2.0 + libmatroska v1.1.0
Видео
Идентификатор : 1
Формат : AVC
Формат/Информация : Advanced Video Codec
Профиль формата : [email protected]
Параметр CABAC формата : Да
Параметр ReFrames формата : 6 кадров
Идентификатор кодека : V_MPEG4/ISO/AVC
Продолжительность : 2 ч. 2 м.
Битрейт : 1335 Кбит/сек
Ширина : 1024 пикселя
Высота : 432 пикселя
Соотношение сторон : 2,35:1
Частота кадров : 25,000 кадров/сек
Цветовое пространство : YUV
Субдискретизация насыщенности : 4:2:0
Битовая глубина : 8 бит
Тип развёртки : Прогрессивная
Бит/(Пиксели*Кадры) : 0.121
Размер потока : 1,12 Гбайт (82%)
Библиотека кодирования : x264 core 115 r1937 aa21558
Настройки программы : cabac=1 / ref=6 / deblock=1:-1:-1 / analyse=0x3:0x113 / me=hex / subme=6 / psy=1 / psy_rd=1.00:0.10 / mixed_ref=0 / me_range=16 / chroma_me=1 / trellis=1 / 8x8dct=1 / cqm=0 / deadzone=21,11 / fast_pskip=1 / chroma_qp_offset=-3 / threads=6 / sliced_threads=0 / nr=0 / decimate=1 / interlaced=0 / bluray_compat=0 / constrained_intra=0 / bframes=6 / b_pyramid=2 / b_adapt=2 / b_bias=0 / direct=3 / weightb=1 / open_gop=0 / weightp=0 / keyint=250 / keyint_min=25 / scenecut=40 / intra_refresh=0 / rc_lookahead=30 / rc=2pass / mbtree=1 / bitrate=1335 / ratetol=1.0 / qcomp=0.60 / qpmin=15 / qpmax=47 / qpstep=3 / cplxblur=20.0 / qblur=0.5 / ip_ratio=1.40 / aq=1:1.10
Аудио
Идентификатор : 2
Формат : AC-3
Формат/Информация : Audio Coding 3
Расширение режима : CM (complete main)
Идентификатор кодека : A_AC3
Продолжительность : 2 ч. 2 м.
Вид битрейта : Постоянный
Битрейт : 256 Кбит/сек
Каналы : 2 канала
Расположение каналов : Front: L R
Частота : 48,0 КГц
Битовая глубина : 16 бит
Метод сжатия : С потерями
Размер потока : 225 Мбайт (16%)





Download / Скачать

Хотите скачать бесплатно? Зарегистрируйтесь на сайте (ссылка на регистрацию). Pirat.ca - самый быстрый торрент трекер в рунете!

Как скачивать  ·   Что такое торрент  ·   Рейтинг и ограничения

Пост 27-Ноя-2011 13:55 (спустя 11 минут)

Топик был перенесен из форума Наше Кино в форум Российские фильмы

Skinwalker
 

Wolf111

57057

Пост 12-Янв-2013 18:36 (спустя 1 год 1 месяц)

[Q] 

Помогу с раздачей
[Профиль]  [ЛС] 
Показать сообщения:    
Ответить на тему

Текущее время: Сегодня 14:13

Часовой пояс: GMT + 4



Вы не можете начинать темы
Вы не можете отвечать на сообщения
Вы не можете редактировать свои сообщения
Вы не можете удалять свои сообщения
Вы не можете голосовать в опросах
Вы не можете прикреплять файлы к сообщениям
Вы не можете скачивать файлы

▼ Вниз