ML
     
  Уважаемый Гость!
Вы можете поддержать проект и зарегистрироваться у наших партнеров - онлайн-стратегия MyLands. При регистрации в игре Вы получите код, который сможете активировать после регистрации на pirat.ca и получить 1000 дублонов.

Ваш код:
59354507ba913a0948d1a8f2e30f2e04c4cd7b9b
 
     

Дом (Олег Погодин) [2011 г., драма, криминал, DVDRip-AVC]

Ответить на тему
 
Автор
Сообщение

Пост 27-Ноя-2011 15:06

[Q] 

zyyx

--Дом-- Год выпуска: 2011
Мировая премьера: 10 ноября 2011
Российская премьера: 3 ноября 2011, «Централ Партнершип»
Дата выхода DVD: 1 декабря 2011, «Новый Диск»
Дата выхода Blu-Ray: Декабрь 2011, «Новый Диск»
Страна: Россия
Жанр: драма, криминал
Продолжительность: 02:07:02
Перевод: Не требуется [Лицензия]
Режиссер: Олег Погодин
В ролях: Сергей Гармаш, Богдан Ступка, Екатерина Редникова, Владимир Епифанцев, Лариса Малеванная, Петр Зайченко, Иван Добронравов, Игорь Савочкин, Глеб Подгородинский, Владимир Бадов...
Описание: В большом доме, посреди донских степей, живёт семейство Шамановых. Всё есть в этом доме, — кроме покоя, любви и взаимопонимания. Отцы конфликтуют с детьми, дети с отцами и друг с другом. Старший сын, Виктор, возвращается в отчий дом после 25-летнего отсутствия. Пока еще он не знает, что по пятам за ним идёт группа профессиональных убийц…-Сэмпл | IMDB | КиноПоиск-Источник/Качество: DVDRip-AVC
Формат: MKV
Видео кодек: H.26x
Аудио кодек: AC3
Видео: [email protected] (2,35:1); 25,000 fps; 1861 kbps; 0.239 bit/pixel
Аудио: AC3, 6 ch., 48 kHz, ~448.00 kbps
Общее
Уникальный идентификатор : 210112909645600007924665720353111988144 (0x9E124641A05A5F1D83A8CCA6B24CD7B0)
Полное имя : F:\pirat.ca\Dom.2011.DVDRip.x264.potroks.mkv
Формат : Matroska
Версия формата : Version 2
Размер файла : 2,05 Гбайт
Продолжительность : 2 ч. 7 м.
Общий поток : 2310 Кбит/сек
Название фильма : -=POTROKS=-
Дата кодирования : UTC 2011-11-27 08:12:03
Программа кодирования : mkvmerge v5.0.1 ('Es ist Sommer') built on Oct 9 2011 11:55:43
Библиотека кодирования : libebml v1.2.2 + libmatroska v1.3.0
Видео
Идентификатор : 1
Формат : AVC
Формат/Информация : Advanced Video Codec
Профиль формата : [email protected]
Параметр CABAC формата : Да
Параметр ReFrames формата : 9 кадров
Идентификатор кодека : V_MPEG4/ISO/AVC
Продолжительность : 2 ч. 7 м.
Битрейт : 1861 Кбит/сек
Ширина : 720 пикселей
Высота : 432 пикселя
Соотношение сторон : 2,35:1
Соотношение сторон в оригинале : 2,35:1
Частота кадров : 25,000 кадров/сек
Цветовое пространство : YUV
Субдискретизация насыщенности : 4:2:0
Битовая глубина : 8 бит
Тип развёртки : Прогрессивная
Бит/(Пиксели*Кадры) : 0.239
Размер потока : 1,61 Гбайт (79%)
Заголовок : Dom.2011.DVDRip.x264.potroks
Библиотека кодирования : x264 core 115 r1937 aa21558
Настройки программы : cabac=1 / ref=9 / deblock=1:-3:-2 / analyse=0x3:0x133 / me=umh / subme=10 / psy=1 / psy_rd=1.00:0.10 / mixed_ref=1 / me_range=32 / chroma_me=1 / trellis=2 / 8x8dct=1 / cqm=0 / deadzone=21,11 / fast_pskip=1 / chroma_qp_offset=-3 / threads=9 / sliced_threads=0 / nr=0 / decimate=1 / interlaced=0 / bluray_compat=0 / constrained_intra=0 / bframes=8 / b_pyramid=2 / b_adapt=2 / b_bias=0 / direct=3 / weightb=1 / open_gop=0 / weightp=2 / keyint=250 / keyint_min=25 / scenecut=40 / intra_refresh=0 / rc_lookahead=60 / rc=2pass / mbtree=1 / bitrate=1861 / ratetol=1.0 / qcomp=0.60 / qpmin=0 / qpmax=69 / qpstep=4 / cplxblur=20.0 / qblur=0.5 / ip_ratio=1.40 / aq=1:1.50
Язык : Russian
Аудио
Идентификатор : 2
Формат : AC-3
Формат/Информация : Audio Coding 3
Расширение режима : CM (complete main)
Идентификатор кодека : A_AC3
Продолжительность : 2 ч. 7 м.
Вид битрейта : Постоянный
Битрейт : 448 Кбит/сек
Каналы : 6 каналов
Расположение каналов : Front: L C R, Side: L R, LFE
Частота : 48,0 КГц
Битовая глубина : 16 бит
Метод сжатия : С потерями
Размер потока : 407 Мбайт (19%)
Заголовок : Оригинал
Язык : Russian







Download / Скачать

Хотите скачать бесплатно? Зарегистрируйтесь на сайте (ссылка на регистрацию). Pirat.ca - самый быстрый торрент трекер в рунете!

Как скачивать  ·   Что такое торрент  ·   Рейтинг и ограничения

Пост 27-Ноя-2011 18:11 (спустя 3 часа)

Топик был перенесен из форума Наше Кино в форум Новинки (HD|DVD|BD|TV|SAT|PDTV| - Rips)

Skinwalker
 

scorpions73

Штурман

Пост 30-Ноя-2011 19:38 (спустя 3 дня)

[Q] 

Порадовал фильмец! Умерли все! Благодарю!
[Профиль]  [ЛС] 

grem57

Шкипер

Пост 07-Янв-2012 16:37 (спустя 1 месяц 6 дней)

[Q] 

Фильм понравился.......советую....НЕ ДЕШЁВАЯ "ОДНОДНЕВКА".....
[Профиль]  [ЛС] 

Versus71

Шкипер

Пост 09-Янв-2012 06:30 (спустя 1 день 13 часов)

[Q] 

Душевный фильм. Но вот с дедом реально в конце трэш получился, было бы актуальней его единственного живым оставить, типа он такой на последнем издыхании, а один жив остался, как это обычно и бывает. Концовочка тоже оригинальная, не предполагал я такого варианта развязки.
Русские фильмы не смотрю, совсем разучились снимать, за несколько лет, это первый который посмотрел и не разочаровался в выборе.

_________________
Endspiel.us
[Профиль]  [ЛС] 

адлер27

Корсар

Пост 28-Мар-2014 10:30 (спустя 2 года 2 месяца)

[Q] 

сильно, одним словом

_________________
[Профиль]  [ЛС] 

RoMaZz

Штурман

Пост 16-Дек-2014 23:53 (спустя 8 месяцев 19 дней)

[Q] 

Спасбио за раздачу, сильный фильм
Спасибо!!!
[Профиль]  [ЛС] 

diman3737

Пост 25-Дек-2014 17:26 (спустя 8 дней)

[Q] 

Фильм бомба! Всем качать!!! Лови бочку
[Профиль]  [ЛС] 
Показать сообщения:    
Ответить на тему

Текущее время: Сегодня 16:12

Часовой пояс: GMT + 4



Вы не можете начинать темы
Вы не можете отвечать на сообщения
Вы не можете редактировать свои сообщения
Вы не можете удалять свои сообщения
Вы не можете голосовать в опросах
Вы не можете прикреплять файлы к сообщениям
Вы не можете скачивать файлы

▼ Вниз