ML
     
  Уважаемый Гость!
Вы можете поддержать проект и зарегистрироваться у наших партнеров - онлайн-стратегия MyLands. При регистрации в игре Вы получите код, который сможете активировать после регистрации на pirat.ca и получить 1000 дублонов.

Ваш код:
062e2babcc491faeb40d496cf9a498ac3df6cdd0
 
     

Пять невест (Карен Оганесян) [2011, Комедия, DVDRip]

Страницы :  1, 2, 3  След.

Ответить на тему
 
Автор
Сообщение

Пост 27-Окт-2011 21:40

[Q] 

zyyx

Пять невест Год выпуска: 2011
Страна: Россия
Жанр: комедия
Продолжительность: 01:43:23
Перевод: Не требуется |Лицензия|
Режиссер: Карен Оганесян
В ролях: Данила Козловский, Артур Смольянинов, Владимир Яглыч, Елизавета Боярская, Юлия Пересильд, Светлана Ходченкова, Ирина Пегова, Валерий Золотухин, Марина Голуб, Александр Лойе
Описание: Май 1945 года. Вся страна ликует и строит планы на новую послевоенную жизнь. Счастливые воины-победители, дошедшие до Берлина, мечтают вернуться героями домой. Но их не спешат отпускать… Очень расстроены этим обстоятельством бравые летчики-истребители Вадик, Леша, Гарик, Ваня и Миша. Ведь в их отсутствие всех красивых девчонок могут разобрать!
Леше Каверину повезло — его отправляют в командировку на Родину. У друзей рождается авантюрный план: Леша должен найти друзьям невест и жениться на них, используя удостоверения ребят. И на все про все у него всего одни сутки…
Качество: DVDRip | Сэмпл
Формат: AVI
Видео кодек: XviD
Аудио кодек : АС3
Видео: 720x384 (1.88:1), 25 fps, XviD build 50 ~1437 kbps avg, 0.21 bit/pixel
Аудио: 48 kHz, AC3 Dolby Digital, 3/2 (L,C,R,l,r) + LFE ch, ~448 kbps
Общее
Полное имя : D:\pirat.ca\5NEVEST.2011.O.DVDRip_relizlab.avi
Формат : AVI
Формат/Информация : Audio Video Interleave
Размер файла : 1,37 Гбайт
Продолжительность : 1 ч. 43 м.
Общий поток : 1895 Кбит/сек
Программа кодирования : VirtualDubMod 1.5.10.3 | www.virtualdub-fr.org || (build 2550/release)
Библиотека кодирования : VirtualDubMod build 2550/release
Видео
Идентификатор : 0
Формат : MPEG-4 Visual
Профиль формата : Advanced [email protected]
Параметр BVOP формата : 3
Параметр QPel формата : Да
Параметр GMC формата : 3 точки перехода
Параметр матрицы формата : Default (H.263)
Идентификатор кодека : XVID
Идентификатор кодека/Подсказка : XviD
Продолжительность : 1 ч. 43 м.
Битрейт : 1437 Кбит/сек
Ширина : 720 пикселей
Высота : 384 пикселя
Соотношение сторон : 1,875
Частота кадров : 25,000 кадров/сек
Цветовое пространство : YUV
Субдискретизация насыщенности : 4:2:0
Битовая глубина : 8 бит
Тип развёртки : Прогрессивная
Метод сжатия : С потерями
Бит/(Пиксели*Кадры) : 0.208
Размер потока : 1,04 Гбайт (76%)
Библиотека кодирования : XviD 1.2.1 (UTC 2008-12-04)
Аудио
Идентификатор : 1
Формат : AC-3
Формат/Информация : Audio Coding 3
Расширение режима : CM (complete main)
Идентификатор кодека : 2000
Продолжительность : 1 ч. 43 м.
Вид битрейта : Постоянный
Битрейт : 448 Кбит/сек
Каналы : 6 каналов
Расположение каналов : Front: L C R, Side: L R, LFE
Частота : 48,0 КГц
Битовая глубина : 16 бит
Метод сжатия : С потерями
Размер потока : 331 Мбайт (24%)
Выравнивание : Разделение по промежуткам
Продолжительность промежутка : 40 мс. (1,00 видеокадр)
Время предзагрузки промежутка : 500 мс.


Download / Скачать

Хотите скачать бесплатно? Зарегистрируйтесь на сайте (ссылка на регистрацию). Pirat.ca - самый быстрый торрент трекер в рунете!

Как скачивать  ·   Что такое торрент  ·   Рейтинг и ограничения

Димидуэндо

Шкипер

Пост 27-Окт-2011 22:12 (спустя 32 минуты)

[Q] 

Надеюсь проверка "глюков" не выявит. Удачи!!!

_________________
Лучше сказать мало но хорошо!
[Профиль]  [ЛС] 

FreemanDS

Морской Волк

Пост 28-Окт-2011 00:31 (спустя 2 часа 19 минут)

[Q] 

Спасибо!)
p.s. Кнопочку "Спасибо" не нашел...

_________________
[Профиль]  [ЛС] 

Пост 28-Окт-2011 05:36 (спустя 5 часов)

Топик был перенесен из форума Наше Кино в форум Новинки (BDRip/HDRip/DVDRip/DVDScr/ТС/SATRip/WP )

Чужая
 

Sonic777

Корсар

Пост 28-Окт-2011 10:32 (спустя 10 часов)

[Q] 

Спасибо zyx!)
[Профиль]  [ЛС] 

Andrei777

Морской Волк

Пост 28-Окт-2011 11:19 (спустя 47 минут)

[Q] 

Спасибо

_________________
[Профиль]  [ЛС] 

Hausser

Гроза морей

Пост 28-Окт-2011 16:59 (спустя 5 часов)

[Q] 

Благодарю!
[Профиль]  [ЛС] 

колян58

Лоцман

Пост 29-Окт-2011 10:24 (спустя 17 часов)

[Q] 

СПАСИБО,ПОСМОТРИМ!!!
[Профиль]  [ЛС] 

CCCPBess

Пост 29-Окт-2011 11:41 (спустя 1 час 17 минут)

[Q] 

Супер ... огромное спасибо - все друзья рекомендовали - сейчас посмотрю. Пиратка набирает тЭмпы!
[Профиль]  [ЛС] 

ЛенаКорн

Лоцман

Пост 29-Окт-2011 13:03 (спустя 1 час 21 минута)

[Q] 

Большое спасибо!!!!
[Профиль]  [ЛС] 

Golsergio

Флибустьер

Пост 29-Окт-2011 15:26 (спустя 2 часа 23 минуты)

[Q] 

Спасибо!!!Глянем.
[Профиль]  [ЛС] 

Оксана 07

Штурман

Пост 29-Окт-2011 16:41 (спустя 1 час 15 минут)

[Q] 

Спасибо!Посмотрим!
[Профиль]  [ЛС] 

ostol

Корсар

Пост 29-Окт-2011 17:05 (спустя 23 минуты)

[Q] 

Спасибо за раздачу.Вроде всё наладили. С уважением...
[Профиль]  [ЛС] 

frost_lucky

Лоцман

Пост 29-Окт-2011 17:29 (спустя 24 минуты)

[Q] 

спасибо
[Профиль]  [ЛС] 

Misslim

Лоцман

Пост 29-Окт-2011 19:34 (спустя 2 часа 5 минут)

[Q] 

Спасибо! Посмотрим!
[Профиль]  [ЛС] 

XAPOH

Гроза морей

Пост 29-Окт-2011 21:17 (спустя 1 час 42 минуты)

[Q] 

Спасибо, заценимм!

_________________

<<<Dolus an virtus quis in hoste requirat?>>>
Intel Core i7 2600, 16Gb Ram, GTX 670, SSD.
PS4.
[Профиль]  [ЛС] 

Hausser

Гроза морей

Пост 29-Окт-2011 22:49 (спустя 1 час 32 минуты)

[Q] 

Посмотреть можно, хотя не очень понравился.
[Профиль]  [ЛС] 

Kenigsberg

Шкипер

Пост 30-Окт-2011 01:03 (спустя 2 часа 13 минут)

[Q] 

Сенька бери мяч!
[Профиль]  [ЛС] 

vladik9

Корсар

Пост 30-Окт-2011 09:34 (спустя 8 часов)

[Q] 

СПАСИБО! Фильм интересный, смотрел дважды
[Профиль]  [ЛС] 

gusklin

Лоцман

Пост 30-Окт-2011 15:54 (спустя 6 часов)

[Q] 

Огромное спасибо!!!!!!;)
[Профиль]  [ЛС] 

Покемон

358

Пост 30-Окт-2011 16:59 (спустя 1 час 4 минуты)

[Q] 

а кто нибудь подскажет почему не могу ничего скачать?

_________________
[Профиль]  [ЛС] 

Satd79

Штурман

Пост 30-Окт-2011 17:53 (спустя 54 минуты)

[Q] 

спасибо
[Профиль]  [ЛС] 

Kachum

Лоцман

Пост 30-Окт-2011 20:35 (спустя 2 часа 42 минуты)

[Q] 

спасиб
[Профиль]  [ЛС] 

Aeynbr1

Лоцман

Пост 30-Окт-2011 22:11 (спустя 1 час 35 минут)

[Q] 

спасибо!!!
[Профиль]  [ЛС] 

Покемон

358

Пост 31-Окт-2011 01:46 (спустя 3 часа)

[Q] 

Спасибо фильм понравился

_________________
[Профиль]  [ЛС] 

FanZaya

Лоцман

Пост 31-Окт-2011 11:24 (спустя 9 часов)

[Q] 

Спасибо!!!!
[Профиль]  [ЛС] 

F

Штурман

Пост 31-Окт-2011 23:04 (спустя 11 часов)

[Q] 

а это не Оганесян случаем, не?
[Профиль]  [ЛС] 

Selim

Корсар

Пост 01-Ноя-2011 20:22 (спустя 21 час)

[Q] 

Режиссер: Карен Оганесян. Сценаристы: Юрий Коротков, Ирина Пивоварова.
"Русское кино"
[Профиль]  [ЛС] 

hambaga

Лоцман

Пост 01-Ноя-2011 20:47 (спустя 24 минуты)

[Q] 

Спасибо,Заценим Счас!!!!
[Профиль]  [ЛС] 

Мишки

Морской Волк

Пост 01-Ноя-2011 22:01 (спустя 1 час 14 минут)

[Q] 

Фильм способствует хорошему настроению, спасибо!

_________________
Это всего лишь игра, настройся на волну позитива!:)
[Профиль]  [ЛС] 
Показать сообщения:    
Ответить на тему

Текущее время: Сегодня 17:40

Часовой пояс: GMT + 4



Вы не можете начинать темы
Вы не можете отвечать на сообщения
Вы не можете редактировать свои сообщения
Вы не можете удалять свои сообщения
Вы не можете голосовать в опросах
Вы не можете прикреплять файлы к сообщениям
Вы не можете скачивать файлы

▼ Вниз