ML
     
  Уважаемый Гость!
Вы можете поддержать проект и зарегистрироваться у наших партнеров - онлайн-стратегия MyLands. При регистрации в игре Вы получите код, который сможете активировать после регистрации на pirat.ca и получить 1000 дублонов.

Ваш код:
4855957e17f50c5c1236a0f8c4492b2b0bba00a0
 
     

Обратный отсчет (Вадим Шмелев) [2006 г., боевик, детектив, триллер, DVDRip]

Ответить на тему
 
Автор
Сообщение

Пост 29-Ноя-2011 22:51

[Q] 

tommek

Морской Волк

Обратный отсчет Год выпуска: 2006
Жанр: боевик, детектив, триллер
Продолжительность: 1:44:45
Режиссер: Вадим Шмелев
В ролях: Оксана Акиньшина, Андрей Ильин, Анастасия Макеева, Андрей Мерзликин, Олег Штефанко, Леонид Ярмольник и другие
Описание: Ровно через 48 часов в Москве прогремит взрыв. Это последняя информация, которую успел передать перед смертью погибший агент. К расследованию подключаются все спецслужбы, но особые надежды возлагают на недавно созданную независимую оперативную группу. В нее входят: юная девушка-хакер, когда-то взломавшая сервер Пентагона; бывший спецназовец, любящий скорость и адреналин; женщина-психолог, чьи внешние достоинства для многих затмевают и ее ум, и ее звание майора; и слепой сапер, которому нюх и интуиция заменяют зрение... И Старший — единственный, сумевший собрать их вместе и научившийся их контролировать. Только эта команда способна, зная, когда, вычислить кто, а главное где...
Источник/Качество: DVDRip
Формат: MPEG
Видео кодек: MPEG-4 Visual
Аудио кодек: Advanced Audio Codec
Видео: MPEG4 Video 704x384 25.00fps 0.210
Аудио: AAC 44100Hz stereo 1411kbp
General
Format : MPEG-4
Format profile : Nero Digital Standard Profile
Codec ID : ndss
File size : 1.10 GiB
Duration : 1h 44mn
Overall bit rate : 1 503 Kbps
Encoded date : UTC 2009-04-14 14:11:51
Tagged date : UTC 2009-04-14 15:21:39
Xtra : WM/MediaClassPrimaryID
Video
ID : 1
Format : MPEG-4 Visual
Format profile : Advanced [email protected]
Format settings, BVOP : Yes
Format settings, QPel : No
Format settings, GMC : No warppoints
Format settings, Matrix : Default (H.263)
Codec ID : 20
Duration : 1h 44mn
Bit rate mode : Variable
Bit rate : 1 416 Kbps
Maximum bit rate : 4 022 Kbps
Width : 704 pixels
Height : 384 pixels
Display aspect ratio : 16:9
Frame rate mode : Constant
Frame rate : 25.000 fps
Color space : YUV
Chroma subsampling : 4:2:0
Bit depth : 8 bits
Scan type : Progressive
Compression mode : Lossy
Bits/(Pixel*Frame) : 0.210
Stream size : 1.04 GiB (94%)
Writing library : em4v 4.1.6.5
Language : English
Encoded date : UTC 2009-04-14 14:11:51
Tagged date : UTC 2009-04-14 15:21:39
Material_Duration : 6285000
Material_StreamSize : 1112594003
Material_FrameCount : 157125
Audio
ID : 2
Format : AAC
Format/Info : Advanced Audio Codec
Format profile : LC
Codec ID : 40
Duration : 1h 44mn
Bit rate mode : Variable
Bit rate : 80.6 Kbps
Maximum bit rate : 144 Kbps
Channel(s) : 2 channels
Channel positions : Front: L R
Sampling rate : 44.1 KHz
Compression mode : Lossy
Stream size : 60.4 MiB (5%)
Language : English
Encoded date : UTC 2009-04-14 14:11:51
Tagged date : UTC 2009-04-14 15:21:39
Material_Duration : 6285015
Material_StreamSize : 63314337



Download / Скачать

Хотите скачать бесплатно? Зарегистрируйтесь на сайте (ссылка на регистрацию). Pirat.ca - самый быстрый торрент трекер в рунете!

Как скачивать  ·   Что такое торрент  ·   Рейтинг и ограничения



Последний раз редактировалось: tommek (2013-03-13 15:25), всего редактировалось 5 раз(а)

Пост 30-Ноя-2011 09:51 (спустя 11 часов)

Топик был перенесен из форума Наше Кино в форум Российские фильмы

Skinwalker
 

tommek ®

Морской Волк

231

Пост 07-Фев-2012 19:16 (спустя 2 месяца 7 дней)

[Q] 

почему статус "временная"?

_________________
[Профиль]  [ЛС] 

Александр1981

Штурман

Пост 12-Фев-2012 20:48 (спустя 5 дней)

[Q] 

как фильм?
[Профиль]  [ЛС] 

tommek ®

Морской Волк

231

Пост 13-Фев-2012 22:42 (спустя 1 день 1 час)

[Q] 

был бы неочень, не держал бы на жестком диске

_________________
[Профиль]  [ЛС] 
Показать сообщения:    
Ответить на тему

Текущее время: Сегодня 06:14

Часовой пояс: GMT + 4



Вы не можете начинать темы
Вы не можете отвечать на сообщения
Вы не можете редактировать свои сообщения
Вы не можете удалять свои сообщения
Вы не можете голосовать в опросах
Вы не можете прикреплять файлы к сообщениям
Вы не можете скачивать файлы

▼ Вниз