ML
     
  Уважаемый Гость!
Вы можете поддержать проект и зарегистрироваться у наших партнеров - онлайн-стратегия MyLands. При регистрации в игре Вы получите код, который сможете активировать после регистрации на pirat.ca и получить 1000 дублонов.

Ваш код:
ef8b3e8cd07bec918273586d22e5aaf18e0ae925
 
     

Банщик президента, или Пасечники Вселенной (Владимир Потапов) [2010 г., фантастика, комедия, DVDRip]

Ответить на тему
 
Автор
Сообщение

Пост 01-Дек-2011 02:14

[Q] 

zyyx

--Банщик президента, или Пасечники Вселенной
«Спасти Землю от вторжения инопланетян смогут только ... алкоголики!»
-- Год выпуска: 2010
Дата выхода DVD: 30 сентября 2010, «Флагман-Трейд»
Производство: Украина
Жанр: фантастика, комедия
Продолжительность: 01:27:40
Перевод: Не требуется [Лицензия] Русский
Режиссер: Владимир Потапов
В ролях: Александр Наумов, Анатолий Терентьев, Юрий Бердников, Инга Оболдина, Иван Агапов, Анна Слынько, Борис Клюев, Всеволод Шиловский, Леонид Громов, Татьяна Кравченко, Александра Мельник, Эдуард Радзюкевич
Описание: Привыкший всегда говорить людям правду, но замороченный проблемами в семейной жизни, очередным увольнением с работы, а также неудачей с утверждением на главную роль в фильме про инопланетян, бывший актер Петр Шпагин, с горя находит себе нового собутыльника водителя -дальнобойщика Валеру, с которым и «развязывает» у себя на даче. Шпагин рассказывает Валере о всех своих важных проблемах, о жене и детях, но все дело вскоре усложняется тем, что его новый товарищ сам неожиданно оказывается ни кем другим, как представителем внеземного разума, подготовившим могучее вторжение и уничтожение всей Земли утром следующего дня…-Сэмпл | КиноПоиск-Источник/Качество: DVDRip
Формат: AVI
Видео кодек: XviD
Аудио кодек: AC3
Видео: 720x400 (1.80:1), 25 fps, XviD build 50, 1967 kbps avg, 0.27 bit/pixel
Аудио: 48 kHz, AC3 Dolby Digital, 2/0 (L,R) ch, 256 kbps
Общее
Полное имя : D:\pirat.ca\Banschik.prezidenta.2010.O.DVDRip.avi
Формат : AVI
Формат/Информация : Audio Video Interleave
Размер файла : 1,37 Гбайт
Продолжительность : 1 ч. 27 м.
Общий поток : 2230 Кбит/сек
Программа кодирования : VirtualDubMod 1.5.4.1 (build 2178/release)
Библиотека кодирования : VirtualDubMod build 2178/release
Видео
Идентификатор : 0
Формат : MPEG-4 Visual
Профиль формата : Advanced [email protected]
Параметр BVOP формата : 1
Параметр QPel формата : Нет
Параметр GMC формата : Без точки перехода
Параметр матрицы формата : Выборочная
Идентификатор кодека : XVID
Идентификатор кодека/Подсказка : XviD
Продолжительность : 1 ч. 27 м.
Битрейт : 1967 Кбит/сек
Ширина : 720 пикселей
Высота : 400 пикселей
Соотношение сторон : 16:9
Частота кадров : 25,000 кадров/сек
Цветовое пространство : YUV
Субдискретизация насыщенности : 4:2:0
Битовая глубина : 8 бит
Тип развёртки : Прогрессивная
Метод сжатия : С потерями
Бит/(Пиксели*Кадры) : 0.273
Размер потока : 1,20 Гбайт (88%)
Библиотека кодирования : XviD 1.2.1 (UTC 2008-12-04)
Аудио
Идентификатор : 1
Формат : AC-3
Формат/Информация : Audio Coding 3
Расширение режима : CM (complete main)
Идентификатор кодека : 2000
Продолжительность : 1 ч. 27 м.
Вид битрейта : Постоянный
Битрейт : 256 Кбит/сек
Каналы : 2 канала
Расположение каналов : Front: L R
Частота : 48,0 КГц
Битовая глубина : 16 бит
Метод сжатия : С потерями
Размер потока : 161 Мбайт (11%)
Выравнивание : Разделение по промежуткам
Продолжительность промежутка : 96 мс. (2,40 видеокадра)
Время предзагрузки промежутка : 96 мс.




Download / Скачать

Хотите скачать бесплатно? Зарегистрируйтесь на сайте (ссылка на регистрацию). Pirat.ca - самый быстрый торрент трекер в рунете!

Как скачивать  ·   Что такое торрент  ·   Рейтинг и ограничения

Пост 24-Сен-2012 14:20 (спустя 9 месяцев 23 дня)

Топик был перенесен из форума Фильмы 2010 - 2012 г.г. в форум Российские фильмы

erchine
 

CHARLI2236

1098

Пост 24-Ноя-2012 21:11 (спустя 11 месяцев 23 дня)

[Q] 

спс

_________________


Последний раз редактировалось: CHARLI2236 (2013-03-14 19:12), всего редактировалось 1 раз
[Профиль]  [ЛС] 

Sergi4

Гроза морей

Пост 25-Ноя-2012 00:28 (спустя 3 часа)

[Q] 

[Профиль]  [ЛС] 

lis777

Корсар

Пост 18-Апр-2013 23:10 (спустя 4 месяца 23 дня)

[Q] 

[Профиль]  [ЛС] 

polyk

Флибустьер

Пост 01-Окт-2015 18:31 (спустя 2 года 5 месяцев)

[Q] 

скачаю посмотрю!!!!!!!!!
[Профиль]  [ЛС] 

platon18

Гроза морей

Пост 13-Окт-2015 15:58 (спустя 11 дней)

[Q] 

по описанию надо самому пить при просмотре
[Профиль]  [ЛС] 

Daemon_BS

Штурман

Пост 25-Фев-2016 14:32 (спустя 4 месяца 11 дней)

[Q] 

ХЗ!!! очередной отстой Раздающему респект!
[Профиль]  [ЛС] 
Показать сообщения:    
Ответить на тему

Текущее время: Сегодня 18:34

Часовой пояс: GMT + 4



Вы не можете начинать темы
Вы не можете отвечать на сообщения
Вы не можете редактировать свои сообщения
Вы не можете удалять свои сообщения
Вы не можете голосовать в опросах
Вы не можете прикреплять файлы к сообщениям
Вы не можете скачивать файлы

▼ Вниз