ML
     
  Уважаемый Гость!
Вы можете поддержать проект и зарегистрироваться у наших партнеров - онлайн-стратегия MyLands. При регистрации в игре Вы получите код, который сможете активировать после регистрации на pirat.ca и получить 1000 дублонов.

Ваш код:
1a5b0a965618b2c406d4279ec9924ee6282c60cf
 
     

Фартовый (Владимир Яканин) [2006 г., Драма, криминал, DVDRip]

Ответить на тему
 
Автор
Сообщение

Пост 28-Окт-2011 22:15

[Q] 

Maks197

Лоцман

Фартовый
Год выпуска: 2006
Жанр: Драма, криминал
Продолжительность: 01:32:47
Режиссер: Владимир Яканин
В ролях: Екатерина Вуличенко, Владимир Епифанцев, Александр Мохов, Николай Иванов, Алексей Жарков, Дмитрий Щербина, Борис Невзоров, Игорь Воробьев, Сергей Греков, Михаил Самохвалов
Описание: 22-летний Вадим Упоров по доносу осужден на 25 лет по статье 58 и отправлен в один из лагерей ГУЛАГА. По прибытии в лагерь он ссорится с ворами, и с вором в законе Дьяком, который приговаривает его к смерти. Чтобы избежать этой участи, он совершает побег. Побег не удается — его ловят, избивают и кидают в карцер в БУР.
В «сейфе» Упоров проводит полгода… Вернувшись в барак, он участвует в конфликте между ворами и «суками» ГУЛАГа. Угрозы воров заставляют нашего героя совершить ещё один побег: он помогает ворам вынести воровскую кассу на «большую землю»… И снова побег раскрыт, в живых остается только Упоров…
Качество: DVDRip
Формат: AVI
Видео кодек: XviD
Аудио кодек: AC3
Видео: 720x416 (1.73:1), 25 fps, 1785 kbps avg, 0.24 bit/pixel
Аудио: 48 kHz, AC3 Dolby Digital, 3/2 (L,C,R,l,r) + LFE ch, 448.00 kbps avg
Общее
Полное имя : G:\Fartovyy.2006.DVDRip.[pirat.ca].avi
Формат : AVI
Формат/Информация : Audio Video Interleave
Размер файла : 1,45 Гбайт
Продолжительность : 1 ч. 32 м.
Общий поток : 2243 Кбит/сек
Название фильма : Фартовый (2006) DVDRip
Режиссёр : [pirat.ca]
Программа кодирования : VirtualDubMod 1.5.10.2 (build 2540/release)
Видео
Идентификатор : 0
Формат : MPEG-4 Visual
Профиль формата : [email protected]
Параметр BVOP формата : 2
Параметр QPel формата : Нет
Параметр GMC формата : Без точки перехода
Параметр матрицы формата : Default (H.263)
Режим смешивания : Сжатый битовый поток
Идентификатор кодека : XVID
Идентификатор кодека/Подсказка : XviD
Продолжительность : 1 ч. 32 м.
Битрейт : 1786 Кбит/сек
Ширина : 720 пикселей
Высота : 416 пикселей
Соотношение сторон : 1,731
Частота кадров : 25,000 кадров/сек
Цветовое пространство : YUV
Субдискретизация насыщенности : 4:2:0
Битовая глубина : 8 бит
Тип развёртки : Прогрессивная
Метод сжатия : С потерями
Бит/(Пиксели*Кадры) : 0.238
Размер потока : 1,16 Гбайт (80%)
Библиотека кодирования : XviD 1.0.3 (UTC 2004-12-20)
Аудио
Идентификатор : 1
Формат : AC-3
Формат/Информация : Audio Coding 3
Расширение режима : CM (complete main)
Параметр Endianness формата : Big
Идентификатор кодека : 2000
Продолжительность : 1 ч. 32 м.
Вид битрейта : Постоянный
Битрейт : 448 Кбит/сек
Каналы : 6 каналов
Расположение каналов : Front: L C R, Side: L R, LFE
Частота : 48,0 КГц
Битовая глубина : 16 бит
Метод сжатия : С потерями
Задержка видео : 360 мс.
Размер потока : 297 Мбайт (20%)
Выравнивание : Разделение по промежуткам
Продолжительность промежутка : 40 мс. (1,00 видеокадр)
Время предзагрузки промежутка : 500 мс.
Download / Скачать

Хотите скачать бесплатно? Зарегистрируйтесь на сайте (ссылка на регистрацию). Pirat.ca - самый быстрый торрент трекер в рунете!

Как скачивать  ·   Что такое торрент  ·   Рейтинг и ограничения



Последний раз редактировалось: Maks197 (2011-10-28 23:33), всего редактировалось 4 раз(а)

Пост 28-Окт-2011 23:36 (спустя 1 час 20 минут)

Топик был перенесен из форума Наше Кино в форум Российские фильмы

goxakrauter
 

evilsan39

Корсар

1232

Пост 17-Янв-2012 18:40 (спустя 2 месяца 19 дней)

[Q] 

Фильм класс !!!!!!!!!!

_________________

[Профиль]  [ЛС] 

KIRST

Корсар

Пост 20-Янв-2012 22:38 (спустя 3 дня)

[Q] 

Книга " Чёрная свеча " - сильная вещь,а этот так называемый фильм грязная пародия на книгу. Руки оторвать тому кто снимал.
[Профиль]  [ЛС] 

erchine

44807

Пост 09-Янв-2013 19:36 (спустя 11 месяцев 19 дней)

[Q] 

[Профиль]  [ЛС] 
Показать сообщения:    
Ответить на тему

Текущее время: Сегодня 23:50

Часовой пояс: GMT + 4



Вы не можете начинать темы
Вы не можете отвечать на сообщения
Вы не можете редактировать свои сообщения
Вы не можете удалять свои сообщения
Вы не можете голосовать в опросах
Вы не можете прикреплять файлы к сообщениям
Вы не можете скачивать файлы

▼ Вниз