ML
     
  Уважаемый Гость!
Вы можете поддержать проект и зарегистрироваться у наших партнеров - онлайн-стратегия MyLands. При регистрации в игре Вы получите код, который сможете активировать после регистрации на pirat.ca и получить 1000 дублонов.

Ваш код:
2a3da67fd641d69eeebb7cb965232435a70eaa24
 
     

Свадьба по обмену (Дмитрий Грачев) [2011 г., мелодрама, комедия, HDRip]

Ответить на тему
 
Автор
Сообщение

Пост 02-Дек-2011 19:58

[Q] 

Amethyst

Свадьба по обмену«Любовь не предлагать!» Год выпуска: 2011
Мировая премьера: 21 апреля 2011
Российская премьера: 21 апреля 2011, «Централ Партнершип»
Дата выхода DVD: 20 октября 2011, «Новый Диск»
Дата выхода Blu-Ray: 8 декабря 2011, «Новый Диск»
Жанр: мелодрама, комедия
Продолжительность: 01:28:28
Перевод: Оригинал [лицензия]
Режиссер: Дмитрий Грачев
В ролях: Екатерина Вилкова, Фёдор Бондарчук, Максим Матвеев, Арарат Кещян, Мария Кожевникова, Ксения Каталымова, Андрей Малахов
Описание: Cупермодель Соня мечтает о тихом семейном счастье с давним бой-френдом Русланом — самовлюблённым ведущим популярного кулинарного шоу, Но тот не разделяет её мечты, он грезит только о славе и повышении собственного рейтинга, поэтому делает Соне предложение руки и сердца в присутствии толпы репортеров. В отместку, Соня решает выйти замуж за обычного банковского клерка Сашу. Тот соглашается и тоже назло любимой девушке, Кристине. Уже выйдя из загса, Саша и Соня понимают, что погорячились. Но делать нечего, теперь им приходится изображать перед всеми счастливую влюбленную пару, скрывая взаимную ненависть.

Источник/Качество: HDRip
Формат: AVI
Видео кодек: XviD
Аудио кодек: AC3
Видео: 1822 kb/s, 720x384, 25.000 fps
Аудио: AC3, 384 kb/s (6 ch)
General
Complete name : D:\Торенты\Svadba.po.obmenu.2011.O.HDRip.avi
Format : AVI
Format/Info : Audio Video Interleave
File size : 1.37 GiB
Duration : 1h 28mn
Overall bit rate : 2 215 Kbps
Writing application : VirtualDubMod 1.5.10.3 | www.virtualdub-fr.org || (build 2550/release)
Writing library : VirtualDubMod build 2550/release
Video
ID : 0
Format : MPEG-4 Visual
Format profile : Advanced [email protected]
Format settings, BVOP : 2
Format settings, QPel : No
Format settings, GMC : No warppoints
Format settings, Matrix : Default (H.263)
Muxing mode : Packed bitstream
Codec ID : XVID
Codec ID/Hint : XviD
Duration : 1h 28mn
Bit rate : 1 822 Kbps
Width : 720 pixels
Height : 384 pixels
Display aspect ratio : 1.875
Frame rate : 25.000 fps
Color space : YUV
Chroma subsampling : 4:2:0
Bit depth : 8 bits
Scan type : Progressive
Compression mode : Lossy
Bits/(Pixel*Frame) : 0.264
Stream size : 1.13 GiB (82%)
Writing library : XviD 58
Audio
ID : 1
Format : AC-3
Format/Info : Audio Coding 3
Mode extension : CM (complete main)
Codec ID : 2000
Duration : 1h 28mn
Bit rate mode : Constant
Bit rate : 384 Kbps
Channel(s) : 6 channels
Channel positions : Front: L C R, Side: L R, LFE
Sampling rate : 48.0 KHz
Bit depth : 16 bits
Compression mode : Lossy
Stream size : 243 MiB (17%)
Alignment : Split accross interleaves
Interleave, duration : 40 ms (1.00 video frame)
Interleave, preload duration : 500 ms
Download / Скачать

Хотите скачать бесплатно? Зарегистрируйтесь на сайте (ссылка на регистрацию). Pirat.ca - самый быстрый торрент трекер в рунете!

Как скачивать  ·   Что такое торрент  ·   Рейтинг и ограничения



Последний раз редактировалось: Amethyst (2011-12-02 20:56), всего редактировалось 3 раз(а)

Пост 02-Дек-2011 20:32 (спустя 34 минуты)

Топик был перенесен из форума Наше Кино в форум Российские фильмы

Skinwalker
 

Alexe10

Гроза морей

36

Пост 21-Окт-2014 08:12 (спустя 2 года 10 месяцев)

[Q] 

Спасибо!!!
[Профиль]  [ЛС] 
Показать сообщения:    
Ответить на тему

Текущее время: Сегодня 01:11

Часовой пояс: GMT + 4



Вы не можете начинать темы
Вы не можете отвечать на сообщения
Вы не можете редактировать свои сообщения
Вы не можете удалять свои сообщения
Вы не можете голосовать в опросах
Вы не можете прикреплять файлы к сообщениям
Вы не можете скачивать файлы

▼ Вниз