ML
     
  Уважаемый Гость!
Вы можете поддержать проект и зарегистрироваться у наших партнеров - онлайн-стратегия MyLands. При регистрации в игре Вы получите код, который сможете активировать после регистрации на pirat.ca и получить 1000 дублонов.

Ваш код:
bc31d8aef74c92e19ad67e34a8fa63c3b9b812fb
 
     

Фига.Rо (Рано Кубаева) [2009 г., комедия / драма, SATRip]

Ответить на тему
 
Автор
Сообщение

Пост 18-Мар-2012 18:55

[Q] 

dimkoba

Фига.Rо
Год выпуска: 2009
Жанр: комедия / драма
Продолжительность: 01:32:00
Режиссер: Рано Кубаева
В ролях: Андрей Молочный, Иван Охлобыстин, Светлана Ефремова, Дарья Якамасова, dj SMASH, Егор Андреев, Фарида Муминова, Светлана Германова, Дима Романиди
Описание: Однажды утром в рекламной компании «Фига.Rо» появляются двое: красивая девушка и мужчина, цитирующий Монтеня. Через две минуты парочка берет в заложники бизнесмена Ивана, окна офиса которого выходят на маршрут следования одного, очень известного человека...Сэмпл ,IMDB, КиноПоискИсточник/Качество: SATRip
Формат: AVI
Видео кодек: XviD
Аудио кодек: MP3
Видео: 640x352 (1.82:1), 25 fps, XviD MPEG-4 ~928 kbps avg, 0.17 bit/pixel
Аудио: 48 kHz, MPEG Layer 3, 2 ch, ~128.00 kbps avg
Полное имя : D:\загрузка\Figa.ro.[Pirat.ca].avi
Формат : AVI
Формат/Информация : Audio Video Interleave
Размер файла : 700 Мбайт
Продолжительность : 1 ч. 32 м.
Общий поток : 1064 Кбит/сек
Программа кодирования : VirtualDubMod 1.5.4.1 (build 2178/release)
Библиотека кодирования : VirtualDubMod build 2178/release
Видео
Идентификатор : 0
Формат : MPEG-4 Visual
Профиль формата : Advanced [email protected]
Параметр BVOP формата : 1
Параметр QPel формата : Нет
Параметр GMC формата : Без точки перехода
Параметр матрицы формата : Выборочная
Идентификатор кодека : XVID
Идентификатор кодека/Подсказка : XviD
Продолжительность : 1 ч. 32 м.
Битрейт : 928 Кбит/сек
Ширина : 640 пикселей
Высота : 352 пикселя
Соотношение сторон : 16:9
Частота кадров : 25,000 кадров/сек
Цветовое пространство : YUV
Субдискретизация насыщенности : 4:2:0
Битовая глубина : 8 бит
Тип развёртки : Прогрессивная
Метод сжатия : С потерями
Бит/(Пиксели*Кадры) : 0.165
Размер потока : 611 Мбайт (87%)
Библиотека кодирования : XviD 64
Аудио
Идентификатор : 1
Формат : MPEG Audio
Версия формата : Version 1
Профиль формата : Layer 3
Режим : Joint stereo
Расширение режима : MS Stereo
Идентификатор кодека : 55
Идентификатор кодека/Подсказка : MP3
Продолжительность : 1 ч. 32 м.
Вид битрейта : Постоянный
Битрейт : 128 Кбит/сек
Каналы : 2 канала
Частота : 48,0 КГц
Метод сжатия : С потерями
Размер потока : 84,2 Мбайт (12%)
Выравнивание : Соединение по промежуткам
Продолжительность промежутка : 80 мс. (2,00 видеокадра)
Время предзагрузки промежутка : 504 мс.
Библиотека кодирования : LAME3.97
Настройки программы : -m j -V 4 -q 2 -lowpass 17 -b 128
Download / Скачать

Хотите скачать бесплатно? Зарегистрируйтесь на сайте (ссылка на регистрацию). Pirat.ca - самый быстрый торрент трекер в рунете!

Как скачивать  ·   Что такое торрент  ·   Рейтинг и ограничения



Последний раз редактировалось: dimkoba (2012-03-18 19:05), всего редактировалось 1 раз

Пост 18-Мар-2012 19:03 (спустя 8 минут)

Топик был перенесен из форума Наше Кино в форум Российские фильмы

ara1205
 

nik0lay

Морской Волк

Пост 19-Мар-2012 14:58 (спустя 20 часов)

[Q] 

ДАВНО ЖДАЛ
[Профиль]  [ЛС] 

dedmazai55

Морской Волк

Пост 21-Июн-2012 23:23 (спустя 3 месяца 2 дня)

[Q] 

Скачаю из за Охлобыстина bp
[Профиль]  [ЛС] 
Показать сообщения:    
Ответить на тему

Текущее время: Сегодня 12:03

Часовой пояс: GMT + 4



Вы не можете начинать темы
Вы не можете отвечать на сообщения
Вы не можете редактировать свои сообщения
Вы не можете удалять свои сообщения
Вы не можете голосовать в опросах
Вы не можете прикреплять файлы к сообщениям
Вы не можете скачивать файлы

▼ Вниз