ML
     
  Уважаемый Гость!
Вы можете поддержать проект и зарегистрироваться у наших партнеров - онлайн-стратегия MyLands. При регистрации в игре Вы получите код, который сможете активировать после регистрации на pirat.ca и получить 1000 дублонов.

Ваш код:
2fd4e750dd89cae3a36ea360f2b345ccfeb562d3
 
     

Глаза (Валентин Ховенко) [1992 г., мелодрама, драма, DVDRip]

Ответить на тему
 
Автор
Сообщение

Пост 21-Мар-2012 17:45

[Q] 

Амангельды

Глаза Год выпуска: 1992
Жанр: Мелодрама, драма
Продолжительность: 01:17:49
Кинокомпания: Таркифильм
Автор сценария и режиссер: Валентин Ховенко
Продюсер: Александра Демидова
Описание: Молодой парень Костя, получив травму глаза во время игры в хоккей, попадает в глазное отделение больницы. Он стремится выписаться побыстрее — скоро полуфинал.
У ребят из его палаты обычай — каждый вечер по специально составленному графику они ходят в подвал на свидания с обитательницами женской палаты, причём партнёршу выбирают исходя не из симпатии, а из расположения кроватей — кровати парня и девушки должны занимать одно и то же место в палате.
Косте приходится не по душе этот обычай, но когда он видит доставшуюся ему партнёршу — красавицу Настю — он сразу влюбляется. Настя совершенно слепа и ожидает операции. Чтобы чаще видеться с Настей, Костя нарушает заведённый график и ходит на свидания без очереди.
Костин глаз идёт на поправку и его выписывают. Не желая расставаться с Настей, он пытается уговорить врача продлить ему больничный и получает отказ. Вдруг Костя полностью теряет зрение. Сосед по палате Женя проводит его к врачам, но те считают, что Костя симулирует, и прогоняют его. Однако Костя настаивает и врач соглашается осмотреть его. К удивлению врача, Костя действительно ослеп, причём на оба глаза. Однако самого Костю волнует лишь один вопрос: продлят ли ему теперь госпитализацию.
Операции Насти прошла успешно, однако после операции она предпочитает Косте другого. Не перенеся этого, Костя пытается покончить жизнь самоубийством, что ему, однако, не удаётся.
Однажды Настя всё-таки пришла к нему. Костя проводит с ней ночь, после чего зрение возвращается.


Качество: DVDRip
Формат: AVI
Видео кодек: XviD
Аудио кодек: AC3
Видео: 656x496 (1.32:1), 25 fps, XviD build 47 ~2484 kbps avg, 0.30 bit/pixel
Аудио: 48 kHz, AC3 Dolby Digital, 2/0 (L,R) ch, ~192.00 kbps avg
Сергей Стеблов — Костя
Инга Ильм — Настя
Светлана Крючкова — мать Кости
Клара Лучко — врач
Леонид Кулагин — отец Насти
Галина Петрова — Фатима
Владимир Привалов
Евгений Бубер
Максим Будимиров
Игорь Донченко
Таня Гуляева
Инна Хвилер
Али Ибрагимов
Саша Лойе — Артур, пациент
Мария Кузнецова
Надежда Самсонова
Формат : AVI
Формат/Информация : Audio Video Interleave
Размер файла : 1,46 Гбайт
Продолжительность : 1 ч. 17 м.
Общий поток : 2683 Кбит/сек
Программа кодирования : VirtualDubMod 1.5.4.1 (build 2178/release)
Библиотека кодирования : VirtualDubMod build 2178/release
Видео
Идентификатор : 0
Формат : MPEG-4 Visual
Профиль формата : Advanced [email protected]
Параметр BVOP формата : 1
Параметр QPel формата : Нет
Параметр GMC формата : Без точки перехода
Параметр матрицы формата : Выборочная
Идентификатор кодека : XVID
Идентификатор кодека/Подсказка : XviD
Продолжительность : 1 ч. 17 м.
Битрейт : 2484 Кбит/сек
Ширина : 656 пикс.
Высота : 496 пикс.
Соотношение сторон : 4:3
Частота кадров : 25,000 кадр/сек
Цветовое пространство : YUV
Подвыборка цветности : 4:2:0
Битовая глубина : 8 бит
Тип развёртки : Прогрессивная
Метод сжатия : С потерями
Бит/(Пиксели*Кадры) : 0.305
Размер потока : 1,35 Гбайт (93%)
Библиотека кодирования : XviD 1.2.0.dev47 (UTC 2006-11-01)
Аудио
Идентификатор : 1
Формат : AC-3
Формат/Информация : Audio Coding 3
Расширение режима : CM (complete main)
Идентификатор кодека : 2000
Продолжительность : 1 ч. 17 м.
Вид битрейта : Постоянный
Битрейт : 192 Кбит/сек
Канал(ы) : 2 канала(ов)
Расположение каналов : Front: L R
Частота : 48,0 КГц
Битовая глубина : 16 бит
Метод сжатия : С потерями
Задержка видео : 8 с. 576 мс.
Размер потока : 107 Мбайт (7%)
Выравнивание : Разделение по промежуткам
Продолжительность промежутка : 96 мс. (2,40 видеокадров)
Время предзагрузки промежутка : 96 ms
Язык : Russian
Download / Скачать

Хотите скачать бесплатно? Зарегистрируйтесь на сайте (ссылка на регистрацию). Pirat.ca - самый быстрый торрент трекер в рунете!

Как скачивать  ·   Что такое торрент  ·   Рейтинг и ограничения

chtv

Шкипер

Пост 21-Мар-2012 18:52 (спустя 1 час 7 минут)

[Q] 

Хороший фильм! Смотрел подростком - очень понравился.
[Профиль]  [ЛС] 

Пост 21-Мар-2012 19:38 (спустя 46 минут)

Топик был перенесен из форума Наше Кино в форум Российские фильмы

ara1205
 

Амангельды ®

35486

Пост 21-Мар-2012 19:54 (спустя 1 час 1 минута)

[Q] 

chtv, так про любовь же... Немного наивно, но получилось великолепно...
ara1205 az

_________________

Товарищ, верь, пройдет она,
Так называемая гласность.
И вот тогда госбезопасность
Припомнит ваши имена
Раздачи от Амангельды - ТЫНЦ
[Профиль]  [ЛС] 

Wolf111

57057

Пост 14-Янв-2013 18:01 (спустя 9 месяцев 23 дня)

[Q] 

Помогу с раздачей
[Профиль]  [ЛС] 
Показать сообщения:    
Ответить на тему

Текущее время: Сегодня 14:13

Часовой пояс: GMT + 4



Вы не можете начинать темы
Вы не можете отвечать на сообщения
Вы не можете редактировать свои сообщения
Вы не можете удалять свои сообщения
Вы не можете голосовать в опросах
Вы не можете прикреплять файлы к сообщениям
Вы не можете скачивать файлы

▼ Вниз