ML
     
  Уважаемый Гость!
Вы можете поддержать проект и зарегистрироваться у наших партнеров - онлайн-стратегия MyLands. При регистрации в игре Вы получите код, который сможете активировать после регистрации на pirat.ca и получить 1000 дублонов.

Ваш код:
21acd5966619d49ad0b90c3305467b4646cc11a8
 
     

Ангел (Дмитрий Федоров) [2011 г., Драма, семейный, DVDRip]

Ответить на тему
 
Автор
Сообщение

Пост 22-Мар-2012 14:23

[Q] 

Znoi

Флибустьер

-Ангел
--Год выпуска: 2011
Российская премьера: 24 ноября 2011
Дата выхода DVD: 15 марта 2012
Производство: Россия, Ракурс
Жанр: Драма, семейный
Продолжительность: 01:28:34--Перевод: Не требуется
Субтитры: отсутствуют--Режиссер: Дмитрий Федоров--В ролях
Георгий Мирской, Ольга Берёзкина, Феликс Антипов, Владимир Приз, Роман Пастухов, Алексей Панов, Андрей Руденко, Галина Фёдорова, Владимир Смирнов--Описание
Рассказ о ребенке, несущем в себе духовный свет надежды, для которого, детство закончилось разлукой с матерью. Мама, решая свои личные проблемы, отправляет Юрика на лето к прадеду в деревню. Летние каникулы, обычно приносящие столько радости и впечатлений, стали для нашего героя настоящим испытанием...-- --Источник/Качество: DVDRip
Формат: AVI
Видео кодек: XviD
Аудио кодек: AC3
Видео: XviD, 1749 Кбит/с, 720x384 пикс, 25.000 кадров/сек
Аудио: AC3, 6 ch, 448 Кбит/с, 48,0 КГц
General
Complete name : D:\Angel.2011.XviD.DVDRip.[pirat.ca].avi
Format : AVI
Format/Info : Audio Video Interleave
File size : 1.37 GiB
Duration : 1h 28mn
Overall bit rate : 2 207 Kbps
Movie name : Angel.2011.O.DVDRip
Director : ETRO-Am
Genre : Drama
Writing application : VirtualDubMod 1.5.10.2 (build 2540/release)
Original source form/Name : Movie
Video
ID : 0
Format : MPEG-4 Visual
Format profile : Advanced [email protected]
Format settings, BVOP : 2
Format settings, QPel : No
Format settings, GMC : No warppoints
Format settings, Matrix : Custom
Codec ID : XVID
Codec ID/Hint : XviD
Duration : 1h 28mn
Bit rate : 1 750 Kbps
Width : 720 pixels
Height : 384 pixels
Display aspect ratio : 1.875
Frame rate : 25.000 fps
Color space : YUV
Chroma subsampling : 4:2:0
Bit depth : 8 bits
Scan type : Progressive
Compression mode : Lossy
Bits/(Pixel*Frame) : 0.253
Stream size : 1.08 GiB (79%)
Writing library : XviD 1.2.0.dev47 (UTC 2006-11-01)
Audio
ID : 1
Format : AC-3
Format/Info : Audio Coding 3
Mode extension : CM (complete main)
Codec ID : 2000
Duration : 1h 28mn
Bit rate mode : Constant
Bit rate : 448 Kbps
Channel(s) : 6 channels
Channel positions : Front: L C R, Side: L R, LFE
Sampling rate : 48.0 KHz
Bit depth : 16 bits
Compression mode : Lossy
Stream size : 284 MiB (20%)
Alignment : Split accross interleaves
Interleave, duration : 40 ms (1.00 video frame)
Interleave, preload duration : 500 ms
Download / Скачать

Хотите скачать бесплатно? Зарегистрируйтесь на сайте (ссылка на регистрацию). Pirat.ca - самый быстрый торрент трекер в рунете!

Как скачивать  ·   Что такое торрент  ·   Рейтинг и ограничения



Последний раз редактировалось: Znoi (2012-03-22 14:49), всего редактировалось 1 раз

Пост 22-Мар-2012 16:00 (спустя 1 час 37 минут)

Топик был перенесен из форума Художественные фильмы (Зарубежное кино) в форум Новинки (HD|DVD|BD|TV|SAT|PDTV| - Rips)

ara1205
 

v_62

Лоцман

Пост 22-Мар-2012 16:19 (спустя 1 час 56 минут)

[Q] 

посмотрю отпишусь..........
[Профиль]  [ЛС] 

Pesok

Гроза морей

Пост 01-Апр-2012 08:35 (спустя 9 дней)

[Q] 

Спасибо - посмотрим

_________________
[Профиль]  [ЛС] 

Пост 26-Апр-2012 15:25 (спустя 25 дней)

Топик был перенесен из форума Новинки (HD|DVD|BD|TV|SAT|PDTV| - Rips) в форум Российские фильмы

ara1205
 
Показать сообщения:    
Ответить на тему

Текущее время: Сегодня 23:19

Часовой пояс: GMT + 4



Вы не можете начинать темы
Вы не можете отвечать на сообщения
Вы не можете редактировать свои сообщения
Вы не можете удалять свои сообщения
Вы не можете голосовать в опросах
Вы не можете прикреплять файлы к сообщениям
Вы не можете скачивать файлы

▼ Вниз