ML
     
  Уважаемый Гость!
Вы можете поддержать проект и зарегистрироваться у наших партнеров - онлайн-стратегия MyLands. При регистрации в игре Вы получите код, который сможете активировать после регистрации на pirat.ca и получить 1000 дублонов.

Ваш код:
59354507ba913a0948d1a8f2e30f2e04c4cd7b9b
 
     

Русский бунт (Александр Прошкин) [1999 г., военный, драма, история, DVDRip-AVC]

Ответить на тему
 
Автор
Сообщение

Пост 25-Мар-2012 11:01

[Q] 

Linnan

Русский бунт
Год выпуска: 1999
Жанр: военный, драма, история
Продолжительность: 02:03:50
Режиссер: Александр Прошкин
В ролях: Матеуш Даменцки, Каролина Грушка, Владимир Машков, Сергей Маковецкий, Владимир Ильин, Юрий Беляев, Наталья Егорова, Юрий Кузнецов, Ольга Антонова, Юозас Будрайтис
Описание: Конец XVIII века. Царствование Екатерины II. В глубокой российской провинции, среди бескрайних уральских степей беглый каторжник Емельян Пугачев объявил себя императором Петром III. Под знамена самозванца встали отряды казаков, беглые крепостные и многие лихие люди. В это смутное время в богом забытой Белогорской крепости юный офицер Петр Гринев встречает свою первую любовь — Машеньку, дочь капитана Миронова.
Безоглядно увлеченные друг другом влюбленные не желали замечать знамений грядущей беды. Они не знали, что вскоре им предстоят тяжкие испытания. Они не могли представить, каким причудливым образом их судьбы переплетутся с судьбой самозваного царя и каких невероятных усилий им будет стоить сохранить свои жизни и чувства в кровавом хаосе беспощадного русского бунта.
Источник/Качество: DVDRip-AVC
Формат: MKV
Видео кодек: V_MPEG4/ISO/AVC
Аудио кодек: AC3
Видео: 720х400, 25 fps, 1233 kbps, 0.171 b/px
Аудио: 448 kbps, 6 ch, 48 КHz
Общее
Уникальный идентификатор : 222661581596305278925784391365094946635 (0xA7830F8D0E59C11AB9DA3E0C3072374B)
Полное имя : F:\Загрузки торрента\Russkiy Bunt [pirat.ca].mkv
Формат : Matroska
Версия формата : Version 2
Размер файла : 1,46 Гбайт
Продолжительность : 2 ч. 3 м.
Общий поток : 1682 Кбит/сек
Дата кодирования : UTC 2012-03-25 07:04:30
Программа кодирования : mkvmerge v2.8.0 ('The Tree') built on May 9 2009 18:02:06
Библиотека кодирования : libebml v0.7.7 + libmatroska v0.8.1
Видео
Идентификатор : 1
Формат : AVC
Формат/Информация : Advanced Video Codec
Профиль формата : [email protected]
Параметр CABAC формата : Да
Параметр ReFrames формата : 8 кадров
Идентификатор кодека : V_MPEG4/ISO/AVC
Продолжительность : 2 ч. 3 м.
Битрейт : 1233 Кбит/сек
Ширина : 720 пикселей
Высота : 400 пикселей
Соотношение сторон : 16:9
Соотношение сторон в оригинале : 16:9
Частота кадров : 25,000 кадров/сек
Цветовое пространство : YUV
Субдискретизация насыщенности : 4:2:0
Битовая глубина : 8 бит
Тип развёртки : Прогрессивная
Бит/(Пиксели*Кадры) : 0.171
Размер потока : 1,04 Гбайт (71%)
Библиотека кодирования : x264 core 67 r1134M b8808bf
Настройки программы : cabac=1 / ref=8 / deblock=1:-1:-1 / analyse=0x3:0x133 / me=umh / subme=7 / psy_rd=1.0:0.0 / mixed_ref=1 / me_range=32 / chroma_me=1 / trellis=2 / 8x8dct=1 / cqm=0 / deadzone=21,11 / chroma_qp_offset=-4 / threads=3 / nr=0 / decimate=0 / mbaff=0 / bframes=4 / b_pyramid=1 / b_adapt=1 / b_bias=0 / direct=3 / wpredb=1 / keyint=250 / keyint_min=25 / scenecut=40 / rc=2pass / bitrate=1233 / ratetol=1.0 / qcomp=0.60 / qpmin=10 / qpmax=51 / qpstep=4 / cplxblur=20.0 / qblur=0.5 / ip_ratio=1.40 / pb_ratio=1.30 / aq=1:1.00 / zones=181536,185756,q=38
Аудио
Идентификатор : 2
Формат : AC-3
Формат/Информация : Audio Coding 3
Расширение режима : CM (complete main)
Идентификатор кодека : A_AC3
Продолжительность : 2 ч. 3 м.
Вид битрейта : Постоянный
Битрейт : 448 Кбит/сек
Каналы : 6 каналов
Расположение каналов : Front: L C R, Side: L R, LFE
Частота : 48,0 КГц
Битовая глубина : 16 бит
Метод сжатия : С потерями
Задержка видео : 8 мс.
Размер потока : 397 Мбайт (27%)
Download / Скачать

Хотите скачать бесплатно? Зарегистрируйтесь на сайте (ссылка на регистрацию). Pirat.ca - самый быстрый торрент трекер в рунете!

Как скачивать  ·   Что такое торрент  ·   Рейтинг и ограничения

Пост 25-Мар-2012 11:42 (спустя 41 минута)

Топик был перенесен из форума Наше Кино в форум Российские фильмы

ara1205
 

ficus42

Корсар

Пост 26-Мар-2012 10:02 (спустя 23 часа)

[Q] 

Будем посмотреть
[Профиль]  [ЛС] 
Показать сообщения:    
Ответить на тему

Текущее время: Сегодня 16:11

Часовой пояс: GMT + 4



Вы не можете начинать темы
Вы не можете отвечать на сообщения
Вы не можете редактировать свои сообщения
Вы не можете удалять свои сообщения
Вы не можете голосовать в опросах
Вы не можете прикреплять файлы к сообщениям
Вы не можете скачивать файлы

▼ Вниз