ML
     
  Уважаемый Гость!
Вы можете поддержать проект и зарегистрироваться у наших партнеров - онлайн-стратегия MyLands. При регистрации в игре Вы получите код, который сможете активировать после регистрации на pirat.ca и получить 1000 дублонов.

Ваш код:
aec9a4a936117fb450ba69e519991a0465404b1d
 
     

Ромашка, кактус, маргаритка (Александр Итыгилов мл.) [2009 г., комедия, мелодрама, DVDRip]

Ответить на тему
 
Автор
Сообщение

Пост 25-Мар-2012 17:00

[Q] 

maerillo

Штурман

Ромашка, кактус, маргаритка
Год выпуска: 2009
Жанр: комедия, мелодрама
Продолжительность: 01:28:25
Режиссер: Александр Итыгилов мл.
В ролях: Марина Коняшкина, Андрей Чернышов, Владимир Горянский, Остап Ступка, Сергей Шустицкий,Сергей Устюжанин, Сергей Щелкалин, Юлия Волчкова, Валерия Ходос
Описание: У Маргариты Федотовой наступила полоса неудач. Во-первых, она повздорила с руководителем школы танцев, где занималась степом, во-вторых, ее уволили за то, что упустила выгодного клиента, чем нанесла ущерб компании, и в довершение ссора с новым соседом по дому, который то включает громкую музыку, то, по ее мнению, откровенно ей хамит. Волею судеб сосед станет ее новым начальником…
Доп. информация:
Источник/Качество: DVDRip
Формат: AVI
Видео кодек: XviD
Аудио кодек: AC3
Видео: 704x400 (1.76:1), 25 fps, XviD build 50 ~1636 kbps avg, 0.23 bit/pixel
Аудио: 48 kHz, AC3 Dolby Digital, 2/0 (L,R) ch, ~128 kbps
[Общее
Полное имя : D:\Romashka.Kaktus.Margaritka.2009..avi
Формат : AVI
Формат/Информация : Audio Video Interleave
Размер файла : 1,09 Гбайт
Продолжительность : 1 ч. 28 м.
Общий поток : 1771 Кбит/сек
Программа кодирования : VirtualDubMod 1.5.4.1 (build 2178/release)
Библиотека кодирования : VirtualDubMod build 2178/release
Видео
Идентификатор : 0
Формат : MPEG-4 Visual
Профиль формата : Advanced [email protected]
Параметр BVOP формата : Нет
Параметр QPel формата : Нет
Параметр GMC формата : Без точки перехода
Параметр матрицы формата : Выборочная
Идентификатор кодека : XVID
Идентификатор кодека/Подсказка : XviD
Продолжительность : 1 ч. 28 м.
Битрейт : 1636 Кбит/сек
Ширина : 704 пикселя
Высота : 400 пикселей
Соотношение сторон : 16:9
Частота кадров : 25,000 кадров/сек
Цветовое пространство : YUV
Субдискретизация насыщенности : 4:2:0
Битовая глубина : 8 бит
Тип развёртки : Прогрессивная
Метод сжатия : С потерями
Бит/(Пиксели*Кадры) : 0.232
Размер потока : 1,01 Гбайт (92%)
Библиотека кодирования : XviD 1.2.1 (UTC 2008-12-04)
Аудио
Идентификатор : 1
Формат : AC-3
Формат/Информация : Audio Coding 3
Расширение режима : CM (complete main)
Идентификатор кодека : 2000
Продолжительность : 1 ч. 28 м.
Вид битрейта : Постоянный
Битрейт : 128 Кбит/сек
Каналы : 2 канала
Расположение каналов : Front: L R
Частота : 48,0 КГц
Битовая глубина : 16 бит
Метод сжатия : С потерями
Размер потока : 81,0 Мбайт (7%)
Выравнивание : Разделение по промежуткам
Продолжительность промежутка : 96 мс. (2,40 видеокадра)
Время предзагрузки промежутка : 96 мс.
Download / Скачать

Хотите скачать бесплатно? Зарегистрируйтесь на сайте (ссылка на регистрацию). Pirat.ca - самый быстрый торрент трекер в рунете!

Как скачивать  ·   Что такое торрент  ·   Рейтинг и ограничения



Последний раз редактировалось: maerillo (2012-03-25 19:28), всего редактировалось 7 раз(а)

Пост 25-Мар-2012 19:35 (спустя 2 часа 34 минуты)

Топик был перенесен из форума Наше Кино в форум Российские фильмы

ara1205
 

ficus42

Корсар

Пост 26-Мар-2012 09:50 (спустя 16 часов)

[Q] 

Будем посмотреть.
[Профиль]  [ЛС] 

maerillo ®

Штурман

203

Пост 16-Апр-2012 16:39 (спустя 21 день)

[Q] 

Будем посмотреть.
Ну и как?
[Профиль]  [ЛС] 

Wolf111

57067

Пост 18-Дек-2012 16:48 (спустя 8 месяцев 2 дня)

[Q] 

Помогу с раздачей
[Профиль]  [ЛС] 
Показать сообщения:    
Ответить на тему

Текущее время: Сегодня 02:21

Часовой пояс: GMT + 4



Вы не можете начинать темы
Вы не можете отвечать на сообщения
Вы не можете редактировать свои сообщения
Вы не можете удалять свои сообщения
Вы не можете голосовать в опросах
Вы не можете прикреплять файлы к сообщениям
Вы не можете скачивать файлы

▼ Вниз