ML
     
  Уважаемый Гость!
Вы можете поддержать проект и зарегистрироваться у наших партнеров - онлайн-стратегия MyLands. При регистрации в игре Вы получите код, который сможете активировать после регистрации на pirat.ca и получить 1000 дублонов.

Ваш код:
2a3da67fd641d69eeebb7cb965232435a70eaa24
 
     

Коммуналка (Максим Бриус) [2011 г., криминал, DVDRip]

Ответить на тему
 
Автор
Сообщение

Пост 25-Мар-2012 19:03

[Q] 

zyyx

--Коммуналка-- Год выпуска: 2011
Российская премьера: 7 октября 2011
Дата выхода DVD: 16 апреля 2012, «Дивайс»
Производство: Россия
Жанр: криминал
Продолжительность: 01:29:49
Перевод: Не требуется [лицензия]
Режиссер: Максим Бриус
В ролях: Евгений Пронин, Ксения Скакун, Алексей Осипов, Дарья Чернявская, Антон Пулит,Алексей Федькин, Вадим Лобанов, Николай Замула, Оксана Базилевич, Сергей Васильев
Описание: Паша Раевский — лейтенант милиции — развелся с женой и переехал в коммунальную квартиру. Его соседями по коммуналке оказались стриптизерша Вика и недавно вернувшийся после очередной отсидки Виктор. Поначалу отношения соседей складывались почти враждебно. Но случается так, что подруга Вики Ирина становится свидетельницей убийства крупного криминального авторитета Андрона. И в панике приезжает к Вике. Туда же за ней приезжают бандиты.
Девушек спасает неожиданно вернувшийся домой Виктор. Он убивает одного из бандитов и вместе с девушками пускается в бега. У беглецов нет другого выхода, кроме как обратиться за помощью к своему соседу Паше. В итоге все жители коммунальной квартиры оказываются втянуты в бандитские разборки. По одиночке им не справиться, и они вынуждены держаться друг друга.
Источник/Качество: DVDRip | Сэмпл
Формат: AVI
Видео кодек: XviD
Аудио кодек: AC3
Видео: 720x400 (1.80:1), 25 fps, XviD build 64, 1864 kbps avg, 0.26 bit/pixel
Аудио: 48 kHz, AC3 Dolby Digital, 3/2 (L,C,R,l,r) + LFE ch, 448 kbps
General
Complete name : F:\Kommunalka.2011.O.DVDRip.avi
Format : AVI
Format/Info : Audio Video Interleave
File size : 1.46 GiB
Duration : 1h 29mn
Overall bit rate : 2 322 Kbps
Writing application : VirtualDubMod 1.5.10.3 | www.virtualdub-fr.org || (build 2550/release)
Writing library : VirtualDubMod build 2550/release
Video
ID : 0
Format : MPEG-4 Visual
Format profile : Advanced [email protected]
Format settings, BVOP : 1
Format settings, QPel : No
Format settings, GMC : No warppoints
Format settings, Matrix : Custom
Codec ID : XVID
Codec ID/Hint : XviD
Duration : 1h 29mn
Bit rate : 1 865 Kbps
Width : 720 pixels
Height : 400 pixels
Display aspect ratio : 16:9
Frame rate : 25.000 fps
Color space : YUV
Chroma subsampling : 4:2:0
Bit depth : 8 bits
Scan type : Progressive
Compression mode : Lossy
Bits/(Pixel*Frame) : 0.259
Stream size : 1.17 GiB (80%)
Writing library : XviD 64
Audio
ID : 1
Format : AC-3
Format/Info : Audio Coding 3
Mode extension : CM (complete main)
Codec ID : 2000
Duration : 1h 29mn
Bit rate mode : Constant
Bit rate : 448 Kbps
Channel(s) : 6 channels
Channel positions : Front: L C R, Side: L R, LFE
Sampling rate : 48.0 KHz
Bit depth : 16 bits
Compression mode : Lossy
Stream size : 288 MiB (19%)
Alignment : Split accross interleaves
Interleave, duration : 40 ms (1.00 video frame)
Interleave, preload duration : 500 ms
Download / Скачать

Хотите скачать бесплатно? Зарегистрируйтесь на сайте (ссылка на регистрацию). Pirat.ca - самый быстрый торрент трекер в рунете!

Как скачивать  ·   Что такое торрент  ·   Рейтинг и ограничения

Пост 25-Мар-2012 19:12 (спустя 9 минут)

Топик был перенесен из форума Наше Кино в форум Новинки (HD|DVD|BD|TV|SAT|PDTV| - Rips)

ara1205
 

MakAVP

Морской Волк

18

Пост 25-Мар-2012 20:11 (спустя 1 час 8 минут)

[Q] 

Как фильм то?

_________________

[Профиль]  [ЛС] 

YURIY-76

Шкипер

Пост 25-Мар-2012 20:17 (спустя 6 минут)

[Q] 

глянемс
[Профиль]  [ЛС] 

dr.archie80

Морской Волк

Пост 25-Мар-2012 20:44 (спустя 26 минут)

[Q] 

[Профиль]  [ЛС] 

Valf66

Морской Волк

Пост 25-Мар-2012 21:13 (спустя 28 минут)

[Q] 

[Профиль]  [ЛС] 

kisu

Гроза морей

Пост 25-Мар-2012 22:21 (спустя 1 час 7 минут)

[Q] 

Кто-нить смотрел?как фильм?
[Профиль]  [ЛС] 

shteker

Морской Волк

Пост 25-Мар-2012 23:01 (спустя 40 минут)

[Q] 

Спасибо
[Профиль]  [ЛС] 

savatey

Корсар

Пост 25-Мар-2012 23:05 (спустя 3 минуты)

[Q] 

Нормальный фильм , по телеку показывали .

_________________
[Профиль]  [ЛС] 

leonid.

Флибустьер

Пост 25-Мар-2012 23:50 (спустя 45 минут)

[Q] 

тоже глянемс!спасибо.
[Профиль]  [ЛС] 

ficus42

Корсар

Пост 26-Мар-2012 09:47 (спустя 9 часов)

[Q] 

Будем посмотреть
[Профиль]  [ЛС] 

sandman1973

Гроза морей

2129

Пост 26-Мар-2012 12:18 (спустя 2 часа 31 минута)

[Q] 

чот не очень....

_________________

[Профиль]  [ЛС] 

Jek@

Легенда

Пост 26-Мар-2012 13:03 (спустя 45 минут)

[Q] 

[Профиль]  [ЛС] 

hevard

Гроза морей

2110

Пост 26-Мар-2012 18:41 (спустя 5 часов)

[Q] 

Нормальный фильмец! В стиле первых "Улиц разбитых фонарей"... Не БЛОКБАСТЕР, но смотрится легко и непринуждённо. Даже вызывает положительные эмоции.

_________________
-Я старый пират и не знаю слов лицензионного соглашения...
[Профиль]  [ЛС] 

VMarkus

Шкипер

Пост 27-Мар-2012 11:03 (спустя 16 часов)

[Q] 

Спасибо, посмотрим.
[Профиль]  [ЛС] 

deek007

Лоцман

Пост 27-Мар-2012 21:35 (спустя 10 часов)

[Q] 

[flash] [/flash]
[Профиль]  [ЛС] 

Sailor

Морской Волк

Пост 29-Мар-2012 13:20 (спустя 1 день 15 часов)

[Q] 

Фильм про быдло, для быдла.
[Профиль]  [ЛС] 

Пост 26-Апр-2012 15:15 (спустя 28 дней)

Топик был перенесен из форума Новинки (HD|DVD|BD|TV|SAT|PDTV| - Rips) в форум Российские фильмы

ara1205
 

darkbrides

Штурман

Пост 04-Янв-2013 06:33 (спустя 9 месяцев 5 дней)

[Q] 

хороший, легко смотрящийся фильм.
[Профиль]  [ЛС] 

Nemetz

Корсар

Пост 08-Янв-2013 21:05 (спустя 4 дня)

[Q] 

на разок покатит
[Профиль]  [ЛС] 
Показать сообщения:    
Ответить на тему

Текущее время: Сегодня 01:17

Часовой пояс: GMT + 4



Вы не можете начинать темы
Вы не можете отвечать на сообщения
Вы не можете редактировать свои сообщения
Вы не можете удалять свои сообщения
Вы не можете голосовать в опросах
Вы не можете прикреплять файлы к сообщениям
Вы не можете скачивать файлы

▼ Вниз