ML
     
  Уважаемый Гость!
Вы можете поддержать проект и зарегистрироваться у наших партнеров - онлайн-стратегия MyLands. При регистрации в игре Вы получите код, который сможете активировать после регистрации на pirat.ca и получить 1000 дублонов.

Ваш код:
8b29d0f8cd61fe457e59e7df0aa1fab41a2b88b9
 
     

Август. Восьмого [2012] (Джаник Файзиев) (Военный, драма) [BDRip-AVC] (Лицензия)

Ответить на тему
 
Автор
Сообщение

Пост 27-Мар-2012 11:51

[Q] 

RaSSeLBeatZ

Легенда

Август. Восьмого-
  • Дата выпуска: 2012
  • Жанр: Военный, драма
  • Страна: Россия
  • Продолжительность: 02:12:09
  • Перевод:
    • Профессиональный (дублированный) [Лицензия]
  • Режиссер: Джаник Файзиев
  • В ролях: Светлана Иванова, Максим Матвеев, Егор Бероев, Артем Фадеев, Александр Олешко, Алексей Гуськов, Хасан Бароев, Владимир Вдовиченков, Гоша Куценко, Сергей Газаров, Анатолий Белый, Лидия Вележева, Владимир Зайцев, Константин Самоуков, Александр Петров, Анна Легчилова, Кирилл Плетнев, Александр Хошабаев, Валентин Варецкий, Руслан Пухов
-Когда события нанизываются одно на другое, когда каждая минута ставит тебя перед выбором, когда жизнь и смерть становятся частью страшной компьютерной игры, пульт от которой — в чужих руках, тогда ты начинаешь действовать так, будто каждая минута — последняя. Казалось бы, жизнь хорошенькой разведенной москвички Ксении оставляет не много места для драматических ситуаций: да, сын Тема тяжело переживает развод родителей, да, поклонник поглощен карьерой, да, мама вмешивается в личную жизнь, — но трудно назвать эти обстоятельства критическими. Все меняется, когда бывший муж, офицер миротворческих сил, просит Ксению прислать Тему к нему, подышать горным воздухом в прекрасной деревушке в доме его родителей! Он уверяет, что это совершенно безопасно — да маленький Тема и не чувствует никакого страха, ведь рядом папа, добрый и непобедимый герой. Но наступает день, когда вражеские танки входят в город — и мир самых страшных игровых иллюзий мальчика становится реальностью. На экране оживают компьютерные драконы и злые космические демоны, втягивая живых людей в огненную вакханалию войны. Ксения обязана выжить в военном аду, пройти через адскую мясорубку прошитого пулями города, чтобы спасти того, кого любит. У нее нет другой цели — и нет другого пути.-
  • Качество: BDRip-AVC
  • Формат:MKV
  • Видео кодек:h.264
  • Аудио кодек:AC3
  • Видео:MPEG-4 AVC, 2909 Кбит/с, 1024x436
  • Аудио 1 :Русский дубляж : AC3, 6 ch, 448 Кбит/с
  • Субтитры:НЕТ
- , , -

Общее
Уникальный идентификатор : 213095714561145324865857844459135948377 (0xA050BDE49949542BBB47B8E107B9D659)
Полное имя : B:\Downloads\Фильмы\Avgust.Vosmogo.2012.x264.BDRip.(AVC).mkv
Формат : Matroska
Размер файла : 3,10 Гбайт
Продолжительность : 2 ч. 12 м.
Общий поток : 3358 Кбит/сек
Название фильма : Release by ==nnlabetik==
Дата кодирования : UTC 2012-03-27 05:18:34
Программа кодирования : mkvmerge v5.4.0 ('Piper') built on Mar 10 2012 13:34:39
Библиотека кодирования : libebml v1.2.3 + libmatroska v1.3.0
Видео
Идентификатор : 1
Формат : AVC
Формат/Информация : Advanced Video Codec
Профиль формата : [email protected]
Параметр CABAC формата : Да
Параметр ReFrames формата : 8 кадры
Идентификатор кодека : V_MPEG4/ISO/AVC
Продолжительность : 2 ч. 12 м.
Битрейт : 2909 Кбит/сек
Ширина : 1024 пикс.
Высота : 436 пикс.
Соотношение сторон : 2,35:1
Частота кадров : 23,976 кадр/сек
Цветовое пространство : YUV
Подвыборка цветности : 4:2:0
Битовая глубина : 8 бит
Тип развёртки : Прогрессивная
Бит/(Пиксели*Кадры) : 0.272
Размер потока : 2,62 Гбайт (85%)
Библиотека кодирования : x264 core 122 r2184 5c85e0a
Настройки программы : cabac=1 / ref=8 / deblock=1:-2:-2 / analyse=0x3:0x113 / me=umh / subme=11 / psy=1 / psy_rd=1.00:0.00 / mixed_ref=1 / me_range=32 / chroma_me=1 / trellis=2 / 8x8dct=1 / cqm=0 / deadzone=21,11 / fast_pskip=1 / chroma_qp_offset=-2 / threads=6 / sliced_threads=0 / nr=0 / decimate=1 / interlaced=0 / bluray_compat=0 / constrained_intra=0 / bframes=6 / b_pyramid=2 / b_adapt=1 / b_bias=0 / direct=3 / weightb=1 / open_gop=0 / weightp=2 / keyint=240 / keyint_min=23 / scenecut=40 / intra_refresh=0 / rc=2pass / mbtree=0 / bitrate=2909 / ratetol=1.0 / qcomp=0.60 / qpmin=0 / qpmax=69 / qpstep=4 / cplxblur=20.0 / qblur=0.5 / ip_ratio=1.40 / pb_ratio=1.30 / aq=1:1.00
Язык : Russian
Аудио
Идентификатор : 2
Формат : AC-3
Формат/Информация : Audio Coding 3
Расширение режима : CM (complete main)
Идентификатор кодека : A_AC3
Продолжительность : 2 ч. 12 м.
Вид битрейта : Постоянный
Битрейт : 448 Кбит/сек
Канал(ы) : 6 канала(ов)
Расположение каналов : Front: L C R, Side: L R, LFE
Частота : 48,0 КГц
Битовая глубина : 16 бит
Метод сжатия : С потерями
Размер потока : 423 Мбайт (13%)
Язык : Russian
Меню
00:00:00.000 : :Chapter 01
00:09:27.400 : :Chapter 02
00:19:43.765 : :Chapter 03
00:30:03.885 : :Chapter 04
00:42:15.533 : :Chapter 05
00:52:50.250 : :Chapter 06
01:03:11.579 : :Chapter 07
01:12:51.825 : :Chapter 08
01:24:27.187 : :Chapter 09
01:35:20.089 : :Chapter 10
01:45:44.421 : :Chapter 11
01:56:43.538 : :Chapter 12
02:08:09.723 : :Chapter 13
02:12:09.212 : :Chapter 14
-
-
Download / Скачать

Хотите скачать бесплатно? Зарегистрируйтесь на сайте (ссылка на регистрацию). Pirat.ca - самый быстрый торрент трекер в рунете!

Как скачивать  ·   Что такое торрент  ·   Рейтинг и ограничения

Пост 27-Мар-2012 13:28 (спустя 1 час 37 минут)

Топик был перенесен из форума Художественные фильмы (Зарубежное кино) в форум Новинки (HD|DVD|BD|TV|SAT|PDTV| - Rips)

ara1205
 

Пост 26-Апр-2012 15:08 (спустя 30 дней)

Топик был перенесен из форума Новинки (HD|DVD|BD|TV|SAT|PDTV| - Rips) в форум Российские фильмы

ara1205
 

Sponsor

Корсар

Пост 10-Май-2012 17:46 (спустя 1 месяц 14 дней)

[Q] 

[Профиль]  [ЛС] 

fhgty

Лоцман

Пост 27-Май-2012 22:30 (спустя 17 дней)

[Q] 

[Профиль]  [ЛС] 

fantome

Лоцман

Пост 29-Авг-2012 16:36 (спустя 3 месяца 1 день)

[Q] 

встаньте на раздачу
[Профиль]  [ЛС] 
Показать сообщения:    
Ответить на тему

Текущее время: Сегодня 21:23

Часовой пояс: GMT + 4



Вы не можете начинать темы
Вы не можете отвечать на сообщения
Вы не можете редактировать свои сообщения
Вы не можете удалять свои сообщения
Вы не можете голосовать в опросах
Вы не можете прикреплять файлы к сообщениям
Вы не можете скачивать файлы

▼ Вниз