ML
     
  Уважаемый Гость!
Вы можете поддержать проект и зарегистрироваться у наших партнеров - онлайн-стратегия MyLands. При регистрации в игре Вы получите код, который сможете активировать после регистрации на pirat.ca и получить 1000 дублонов.

Ваш код:
4399ab8611ee7f8a22949d2ee7634160dd2db7e0
 
     

Август. Восьмого (Джаник Файзиев) [2012 г., драма, военный, BDRip]

Ответить на тему
 
Автор
Сообщение

Пост 27-Мар-2012 12:20

[Q] 

zyyx

Август. Восьмого
Год выпуска: 2012
Жанр: драма, военный
Продолжительность: 02:12:09
Режиссер: Джаник Файзиев
В ролях: Светлана Иванова, Максим Матвеев, Егор Бероев, Артем Фадеев, Владимир Вдовиченков, Сергей Газаров, Гоша Куценко, Анатолий Белый, Кирилл Плетнёв, Алексей Гуськов
Описание: Когда события нанизываются одно на другое, когда каждая минута ставит тебя перед выбором, когда жизнь и смерть становятся частью страшной компьютерной игры, пульт от которой — в чужих руках, тогда ты начинаешь действовать так, будто каждая минута — последняя.
Казалось бы, жизнь хорошенькой разведенной москвички Ксении оставляет не много места для драматических ситуаций: да, сын Тема тяжело переживает развод родителей, да, поклонник поглощен карьерой, да, мама вмешивается в личную жизнь, — но трудно назвать эти обстоятельства критическими.
Все меняется, когда бывший муж, офицер миротворческих сил, просит Ксению прислать Тему к нему, подышать горным воздухом в прекрасной деревушке в доме его родителей! Он уверяет, что это совершенно безопасно — да маленький Тема и не чувствует никакого страха, ведь рядом папа, добрый и непобедимый герой. Но наступает день, когда вражеские танки входят в город — и мир самых страшных игровых иллюзий мальчика становится реальностью. На экране оживают компьютерные драконы и злые космические демоны, втягивая живых людей в огненную вакханалию войны.
Ксения обязана выжить в военном аду, пройти через адскую мясорубку прошитого пулями города, чтобы спасти того, кого любит. У нее нет другой цели — и нет другого пути.
Источник/Качество: BDRip | Сэмпл
Формат: AVI
Видео кодек: XviD
Аудио кодек: AC3
Видео: 720x304 (2.37:1), 23.976 fps, XviD build 50, 1767 kbps avg, 0.34 bit/pixel
Аудио: 48 kHz, AC3 Dolby Digital, 3/2 (L,C,R,l,r) + LFE ch, 448 kbps
General
Complete name : F:\Август. Восьмого.avi
Format : AVI
Format/Info : Audio Video Interleave
Format profile : OpenDML
File size : 2.05 GiB
Duration : 2h 12mn
Overall bit rate : 2 222 Kbps
Writing application : VirtualDubMod 1.5.10.2 (build 2540/release)
Video
ID : 0
Format : MPEG-4 Visual
Format profile : Advanced [email protected]
Format settings, BVOP : 2
Format settings, QPel : No
Format settings, GMC : No warppoints
Format settings, Matrix : Default (MPEG)
Codec ID : XVID
Codec ID/Hint : XviD
Duration : 2h 12mn
Bit rate : 1 762 Kbps
Width : 720 pixels
Height : 304 pixels
Display aspect ratio : 2.35:1
Frame rate : 23.976 fps
Color space : YUV
Chroma subsampling : 4:2:0
Bit depth : 8 bits
Scan type : Progressive
Compression mode : Lossy
Bits/(Pixel*Frame) : 0.336
Stream size : 1.63 GiB (79%)
Writing library : XviD 1.2.1 (UTC 2008-12-04)
Audio
ID : 1
Format : AC-3
Format/Info : Audio Coding 3
Mode extension : CM (complete main)
Codec ID : 2000
Duration : 2h 12mn
Bit rate mode : Constant
Bit rate : 448 Kbps
Channel(s) : 6 channels
Channel positions : Front: L C R, Side: L R, LFE
Sampling rate : 48.0 KHz
Bit depth : 16 bits
Compression mode : Lossy
Stream size : 423 MiB (20%)
Alignment : Split accross interleaves
Interleave, duration : 42 ms (1.00 video frame)
Interleave, preload duration : 500 ms
Download / Скачать

Хотите скачать бесплатно? Зарегистрируйтесь на сайте (ссылка на регистрацию). Pirat.ca - самый быстрый торрент трекер в рунете!

Как скачивать  ·   Что такое торрент  ·   Рейтинг и ограничения

Пост 27-Мар-2012 13:33 (спустя 1 час 13 минут)

Топик был перенесен из форума Наше Кино в форум Новинки (HD|DVD|BD|TV|SAT|PDTV| - Rips)

ara1205
 

Пост 26-Апр-2012 15:13 (спустя 30 дней)

Топик был перенесен из форума Новинки (HD|DVD|BD|TV|SAT|PDTV| - Rips) в форум Российские фильмы

ara1205
 
Показать сообщения:    
Ответить на тему

Текущее время: Сегодня 10:48

Часовой пояс: GMT + 4



Вы не можете начинать темы
Вы не можете отвечать на сообщения
Вы не можете редактировать свои сообщения
Вы не можете удалять свои сообщения
Вы не можете голосовать в опросах
Вы не можете прикреплять файлы к сообщениям
Вы не можете скачивать файлы

▼ Вниз