ML
     
  Уважаемый Гость!
Вы можете поддержать проект и зарегистрироваться у наших партнеров - онлайн-стратегия MyLands. При регистрации в игре Вы получите код, который сможете активировать после регистрации на pirat.ca и получить 1000 дублонов.

Ваш код:
2a3da67fd641d69eeebb7cb965232435a70eaa24
 
     

Дерзкие дни (Руслан Бальтцер) [2007 г., комедия, криминал, DVDRip]

Ответить на тему
 
Автор
Сообщение

Пост 28-Мар-2012 12:23

[Q] 

Gekon86ru

Морской Волк

Дерзкие дни
Год выпуска: 2007
Жанр: комедия, криминал
Продолжительность: 84 мин
Режиссер: Руслан Бальтцер
В ролях: Андрей Дементьев
Гоша Куценко
Матвей Зубалевич
Лера Новикова
Иван Трифонов
Рустам Хазиев
Виктор Сухоруков
Марина Игнатова
Максим Лагашкин
Дмитрий Филимонихин
Описание: Курортный город на Черном море, здесь каждый веселится, как умеет. Скейтбординг, мотофристайл, паркур и, конечно, любовь. Как-то жарким летним днем во время паркуровской вылазки Игнат знакомится с начинающей певицей Линой. Они встречаются и влюбляются.
Все бы хорошо, но однажды Лина становится свидетельницей преступленияи оказывается заложницей бандитов. На помощь может прийти только Игнат. Ради Лины он готов пойти на все, даже на неслыханную аферу…
Качество: DVDRip
Формат: AVI
Видео кодек: XviD
Аудио кодек: AC3
Видео: 720 x 304 (2,35:1), 1739 Кбит/сек, 25 fps
Аудио: 48 кГц, 6 каналов, 448 Кбит/сек
Формат : AVI
Формат/Информация : Audio Video Interleave
Размер файла : 1,37 Гбайт
Продолжительность : 1 ч. 29 м.
Общий поток : 2194 Кбит/сек
Программа кодирования : VirtualDubMod 1.5.4.1 (build 2178/release)
Библиотека кодирования : VirtualDubMod build 2178/release
Видео
Идентификатор : 0
Формат : MPEG-4 Visual
Профиль формата : Advanced [email protected]
Параметр BVOP формата : 1
Параметр QPel формата : Нет
Параметр GMC формата : Без точки перехода
Параметр матрицы формата : Выборочная
Идентификатор кодека : XVID
Идентификатор кодека/Подсказка : XviD
Продолжительность : 1 ч. 29 м.
Битрейт : 1739 Кбит/сек
Ширина : 720 пикселей
Высота : 304 пикселя
Соотношение сторон : 2,35:1
Частота кадров : 25,000 кадров/сек
Цветовое пространство : YUV
Субдискретизация насыщенности : 4:2:0
Битовая глубина : 8 бит
Тип развёртки : Прогрессивная
Метод сжатия : С потерями
Бит/(Пиксели*Кадры) : 0.318
Размер потока : 1,08 Гбайт (79%)
Библиотека кодирования : XviD 1.2.0SMP (UTC 2006-01-08)
Аудио
Идентификатор : 1
Формат : AC-3
Формат/Информация : Audio Coding 3
Расширение режима : CM (complete main)
Идентификатор кодека : 2000
Продолжительность : 1 ч. 29 м.
Вид битрейта : Постоянный
Битрейт : 448 Кбит/сек
Каналы : 6 каналов
Расположение каналов : Front: L C R, Side: L R, LFE
Частота : 48,0 КГц
Битовая глубина : 16 бит
Метод сжатия : С потерями
Размер потока : 286 Мбайт (20%)
Выравнивание : Разделение по промежуткам
Продолжительность промежутка : 96 мс. (2,40 видеокадра)
Время предзагрузки промежутка : 96 мс.
Язык : Russian
Download / Скачать

Хотите скачать бесплатно? Зарегистрируйтесь на сайте (ссылка на регистрацию). Pirat.ca - самый быстрый торрент трекер в рунете!

Как скачивать  ·   Что такое торрент  ·   Рейтинг и ограничения



Последний раз редактировалось: Gekon86ru (2012-03-28 14:06), всего редактировалось 2 раз(а)

Пост 28-Мар-2012 14:12 (спустя 1 час 49 минут)

Топик был перенесен из форума Наше Кино в форум Российские фильмы

ara1205
 

ficus42

Корсар

Пост 29-Мар-2012 13:23 (спустя 1 день)

[Q] 

Будем посмотреть
[Профиль]  [ЛС] 
Показать сообщения:    
Ответить на тему

Текущее время: Сегодня 01:13

Часовой пояс: GMT + 4



Вы не можете начинать темы
Вы не можете отвечать на сообщения
Вы не можете редактировать свои сообщения
Вы не можете удалять свои сообщения
Вы не можете голосовать в опросах
Вы не можете прикреплять файлы к сообщениям
Вы не можете скачивать файлы

▼ Вниз