ML
     
  Уважаемый Гость!
Вы можете поддержать проект и зарегистрироваться у наших партнеров - онлайн-стратегия MyLands. При регистрации в игре Вы получите код, который сможете активировать после регистрации на pirat.ca и получить 1000 дублонов.

Ваш код:
ec3b26eefbcdc72e08e9fd33c6846bb2ca10f8b1
 
     

Zолушка / Золушка (Сергей Иванов) [2012 г., мелодрама, комедия, DVDRip][лицензия]

Страницы :  1, 2  След.

Ответить на тему
 
Автор
Сообщение

Пост 29-Мар-2012 06:17

[Q] 

Vlad.84

Штурман

Zолушка
-Год выпуска: 2012
Страна: Россия
Жанр: мелодрама, комедия
Продолжительность: 01:27:40
Режиссер: Сергей Иванов
В ролях: Кристина Асмус, Никита Ефремов, Артем Ткаченко, Елизавета Боярская, Нонна Гришаева, Александр Цекало, Юрий Стоянов, Сергей Бурунов, Анна Шерлинг, Маргарита Бычкова
Описание: Героиня фильма, Маша Крапивина, — пока еще не красавица, и не то чтобы сказочная умница. Обычная девушка, рискнувшая, подобно тысячам ее сверстниц из самых разных уголков страны, покорить Москву, покинув свой родной провинциальный городок. Вечером учится, а с утра до вечера работает «на вредном производстве» — горничной в очень состоятельной семье. Крупу, конечно, не перебирает, но работы хватает: только успевай крутиться, чтобы угодить властной хозяйке и двум ее взбалмошным дочерям.- -Источник/Качество: DVDRip
Формат: AVI
Видео кодек: XviD
Аудио кодек: AC3
Видео: 720x400, 25 fps, XviD, ~1776 kbps avg, 0.25 bit/pixel
Аудио: 48 kHz, AC3 Dolby Digital, 3/2 (L,C,R,l,r) + LFE ch, ~448.00 kbps avg
General
Complete name : D:Zolushka_2012.DVDRip.avi
Format : AVI
Format/Info : Audio Video Interleave
File size : 1.37 GiB
Duration : 1h 27mn
Overall bit rate : 2 235 Kbps
Writing application : VirtualDubMod 1.5.10.3 | www.virtualdub-fr.org || (build 2550/release)
Writing library : VirtualDubMod build 2550/release
Video
ID : 0
Format : MPEG-4 Visual
Format profile : Advanced [email protected]
Format settings, BVOP : Yes
Format settings, QPel : No
Format settings, GMC : No warppoints
Format settings, Matrix : Custom
Muxing mode : Packed bitstream
Codec ID : XVID
Codec ID/Hint : XviD
Duration : 1h 27mn
Bit rate : 1 777 Kbps
Width : 720 pixels
Height : 400 pixels
Display aspect ratio : 16:9
Frame rate : 25.000 fps
Color space : YUV
Chroma subsampling : 4:2:0
Bit depth : 8 bits
Scan type : Progressive
Bits/(Pixel*Frame) : 0.247
Stream size : 1.09 GiB (80%)
Writing library : XviD 58
Audio
ID : 1
Format : AC-3
Format/Info : Audio Coding 3
Mode extension : CM (complete main)
Codec ID : 2000
Duration : 1h 27mn
Bit rate mode : Constant
Bit rate : 448 Kbps
Channel(s) : 6 channels
Channel positions : Front: L C R, Side: L R, LFE
Sampling rate : 48.0 KHz
Bit depth : 16 bits
Stream size : 281 MiB (20%)
Alignment : Split accross interleaves
Interleave, duration : 40 ms (1.00 video frame)
Interleave, preload duration : 500 ms
Download / Скачать

Хотите скачать бесплатно? Зарегистрируйтесь на сайте (ссылка на регистрацию). Pirat.ca - самый быстрый торрент трекер в рунете!

Как скачивать  ·   Что такое торрент  ·   Рейтинг и ограничения



Последний раз редактировалось: Vlad.84 (2012-03-29 09:35), всего редактировалось 2 раз(а)

A.Net

Корсар

Пост 29-Мар-2012 08:54 (спустя 2 часа 37 минут)

[Q] 

Спасибо
[Профиль]  [ЛС] 

Пост 29-Мар-2012 09:37 (спустя 42 минуты)

Топик был перенесен из форума Наше Кино в форум Новинки (HD|DVD|BD|TV|SAT|PDTV| - Rips)

genkasper
 

egorka st

Корсар

Пост 29-Мар-2012 10:38 (спустя 1 час 43 минуты)

[Q] 

Спасибо! Сейчас будем делать посмотреть.

_________________
[Профиль]  [ЛС] 

exsmo

Морской Волк

Пост 29-Мар-2012 11:35 (спустя 56 минут)

[Q] 


_________________
[Профиль]  [ЛС] 

Valf66

Морской Волк

Пост 29-Мар-2012 12:49 (спустя 1 час 14 минут)

[Q] 

[Профиль]  [ЛС] 

ficus42

Корсар

Пост 29-Мар-2012 13:05 (спустя 16 минут)

[Q] 

Будем посмотреть.
[Профиль]  [ЛС] 

WWsimf

Флибустьер

Пост 29-Мар-2012 13:44 (спустя 39 минут)

[Q] 

[Профиль]  [ЛС] 

Jek@

Легенда

Пост 29-Мар-2012 13:56 (спустя 11 минут)

[Q] 

[Профиль]  [ЛС] 

Шкипер_Саныч

Морской Волк

Пост 29-Мар-2012 19:58 (спустя 6 часов)

[Q] 

[Профиль]  [ЛС] 

romansl

Шкипер

Пост 29-Мар-2012 21:01 (спустя 1 час 2 минуты)

[Q] 

Оперативненько!
[Профиль]  [ЛС] 

vadim0525

Корсар

283

Пост 29-Мар-2012 23:30 (спустя 2 часа 29 минут)

[Q] 

Спасибо!!!!!!!

_________________
[Профиль]  [ЛС] 

gvinet76

Шкипер

Пост 29-Мар-2012 23:46 (спустя 15 минут)

[Q] 

спасибо, но фильм гавно редчайшое
[Профиль]  [ЛС] 

sergLyghin

Корсар

162

Пост 30-Мар-2012 04:51 (спустя 5 часов)

[Q] 

[Профиль]  [ЛС] 

[email protected]

Морской Волк

Пост 30-Мар-2012 07:28 (спустя 2 часа 37 минут)

[Q] 

[Профиль]  [ЛС] 

Aleks44

Гроза морей

Пост 30-Мар-2012 23:16 (спустя 15 часов)

[Q] 

Фильм рассчитан на минимум вложений и максимум отдачи смотрится легко посмотрел отдохнул не напрягая усталый от нагрузок мозг и так же легко забыл про фильм
[Профиль]  [ЛС] 

steve11

Штурман

Пост 31-Мар-2012 00:48 (спустя 1 час 31 минута)

[Q] 

[Профиль]  [ЛС] 

polozm

Легенда

Пост 31-Мар-2012 16:03 (спустя 15 часов)

[Q] 

Гришаева гуд!!!Боярская du какашка

_________________
mac mini -2.0 GHz Intel Core i7/ 8 GB DDR3. /Intel HD 3000(512mb)OS X 10.9 Mavericks
[Профиль]  [ЛС] 

Bozo

Флибустьер

Пост 01-Апр-2012 22:13 (спустя 1 день 6 часов)

[Q] 

Никита Ефремов - очень любопытный актер вырастает ИМХО
[Профиль]  [ЛС] 

dp

Корсар

Пост 02-Апр-2012 11:36 (спустя 13 часов)

[Q] 

Фильм в принципе неплохой, семейный такой. Кристина Асмус не понравилась как сыграла, все те же эмоции что в интернах

_________________
Мог стать отличным пианистом, а стал поскудным программистом
[Профиль]  [ЛС] 

rus733

Штурман

Пост 02-Апр-2012 12:26 (спустя 50 минут)

[Q] 

[Профиль]  [ЛС] 

tuareg

Шкипер

Пост 02-Апр-2012 13:04 (спустя 38 минут)

[Q] 

Опять в центре фильма гламурная московская тусня Баксов и иже с ними,
единственно что понравилось - игра Никиты Ефремова, а так ни о чём...
[Профиль]  [ЛС] 

Selector

Шкипер

Пост 03-Апр-2012 02:28 (спустя 13 часов)

[Q] 

[Профиль]  [ЛС] 

bull271174

Флибустьер

Пост 03-Апр-2012 12:28 (спустя 9 часов)

[Q] 

Посмотрим!
[Профиль]  [ЛС] 

koks

Корсар

168

Пост 03-Апр-2012 16:57 (спустя 4 часа)

[Q] 


_________________
[Профиль]  [ЛС] 

windj

Корсар

73

Пост 03-Апр-2012 18:29 (спустя 1 час 32 минуты)

[Q] 


_________________
[Профиль]  [ЛС] 

xprotm

Корсар

5

Пост 03-Апр-2012 20:24 (спустя 1 час 54 минуты)

[Q] 

хрень
[Профиль]  [ЛС] 

Selim

Корсар

Пост 04-Апр-2012 18:28 (спустя 22 часа)

[Q] 

В принципе неплохой фильм. Советую посмотреть. Есть над чем посмеятся.
[Профиль]  [ЛС] 

lucky14

Корсар

Пост 04-Апр-2012 19:54 (спустя 1 час 25 минут)

[Q] 

нормуль фильм для парного просмотра)))
[Профиль]  [ЛС] 

king177

Корсар

Пост 04-Апр-2012 20:50 (спустя 55 минут)

[Q] 

[Профиль]  [ЛС] 
Показать сообщения:    
Ответить на тему

Текущее время: Сегодня 03:48

Часовой пояс: GMT + 4



Вы не можете начинать темы
Вы не можете отвечать на сообщения
Вы не можете редактировать свои сообщения
Вы не можете удалять свои сообщения
Вы не можете голосовать в опросах
Вы не можете прикреплять файлы к сообщениям
Вы не можете скачивать файлы

▼ Вниз