ML
     
  Уважаемый Гость!
Вы можете поддержать проект и зарегистрироваться у наших партнеров - онлайн-стратегия MyLands. При регистрации в игре Вы получите код, который сможете активировать после регистрации на pirat.ca и получить 1000 дублонов.

Ваш код:
93dbf9fbdfa06c41d3b5a2c3921149ba36168c41
 
     

8 первых свиданий (Дэвид Додсон, Александр Маляревский) [2012 г., комедия, DVDRip][лицензия]

Страницы :  1, 2, 3  След.

Ответить на тему
 
Автор
Сообщение

Пост 29-Мар-2012 06:32

[Q] 

Vlad.84

Штурман

8 первых свиданий
-Год выпуска: 2012
Страна: Россия
Жанр: комедия
Продолжительность: 01:23:04
Режиссер: Дэвид Додсон, Александр Маляревский
В ролях: Оксана Акиньшина, Владимир Зеленский, Денис Никифоров, Екатерина Варнава, Сабина Ахмедова, Ильдар Аллабирдин, Сергей Барковский, Наталья Иохвидова, Игорь Жижикин, Елена Кондулайнен
Описание: Вера телезвезда, ее жених Константин — профессиональный теннисист. Они собираются пожениться. Никита врач-ветеринар и красавица-хирург Илона также спешат оформить отношения. Но одно прекрасное утро разрушает все планы. После веселого вечера Вера просыпается в одной постели с Никитой. Решив, что это последствия слишком бурной вечеринки, молодые люди разъезжаются в разные стороны. Но следующим днем все повторяется — Никита и Вера снова вместе, хотя каждый хорошо помнит, как они засыпали дома — каждый у себя… Так происходит всю последующую неделю. Какие-то таинственные силы устраивают эти неожиданные «свидания», кто-то хочет разрушить их браки, а может быть просто доказать, что они созданы друг для друга?- -Источник/Качество: DVDRip
Формат: AVI
Видео кодек: XviD
Аудио кодек: AC3
Видео: 720x304, 25.000 fps, XviD, 1900 Kbps
Аудио: AC3, 448 Kbps, 48.0 KHz, 6 ch
General
Complete name : D:Vosem.pervuh.svidaniy_2012.DVDRip.avi
Format : AVI
Format/Info : Audio Video Interleave
File size : 1.37 GiB
Duration : 1h 23mn
Overall bit rate : 2 357 Kbps
Writing application : VirtualDubMod 1.5.10.3 | www.virtualdub-fr.org || (build 2550/release)
Writing library : VirtualDubMod build 2550/release
Video
ID : 0
Format : MPEG-4 Visual
Format profile : Advanced [email protected]
Format settings, BVOP : Yes
Format settings, QPel : No
Format settings, GMC : No warppoints
Format settings, Matrix : Custom
Muxing mode : Packed bitstream
Codec ID : XVID
Codec ID/Hint : XviD
Duration : 1h 23mn
Bit rate : 1 900 Kbps
Width : 720 pixels
Height : 304 pixels
Display aspect ratio : 2.35:1
Frame rate : 25.000 fps
Color space : YUV
Chroma subsampling : 4:2:0
Bit depth : 8 bits
Scan type : Progressive
Bits/(Pixel*Frame) : 0.347
Stream size : 1.10 GiB (81%)
Writing library : XviD 58
Audio
ID : 1
Format : AC-3
Format/Info : Audio Coding 3
Mode extension : CM (complete main)
Codec ID : 2000
Duration : 1h 23mn
Bit rate mode : Constant
Bit rate : 448 Kbps
Channel(s) : 6 channels
Channel positions : Front: L C R, Side: L R, LFE
Sampling rate : 48.0 KHz
Bit depth : 16 bits
Stream size : 266 MiB (19%)
Alignment : Split accross interleaves
Interleave, duration : 40 ms (1.00 video frame)
Interleave, preload duration : 500 ms
Download / Скачать

Хотите скачать бесплатно? Зарегистрируйтесь на сайте (ссылка на регистрацию). Pirat.ca - самый быстрый торрент трекер в рунете!

Как скачивать  ·   Что такое торрент  ·   Рейтинг и ограничения



Последний раз редактировалось: Vlad.84 (2012-03-29 09:19), всего редактировалось 1 раз

A.Net

Корсар

Пост 29-Мар-2012 08:53 (спустя 2 часа 20 минут)

[Q] 

[Профиль]  [ЛС] 

Пост 29-Мар-2012 09:34 (спустя 41 минута)

Топик был перенесен из форума Наше Кино в форум Новинки (HD|DVD|BD|TV|SAT|PDTV| - Rips)

genkasper
 

exsmo

Морской Волк

Пост 29-Мар-2012 11:34 (спустя 2 часа 40 минут)

[Q] 


_________________
[Профиль]  [ЛС] 

maglot129

Корсар

Пост 29-Мар-2012 12:44 (спустя 1 час 9 минут)

[Q] 

[Профиль]  [ЛС] 

Jek@

Легенда

Пост 29-Мар-2012 14:01 (спустя 1 час 17 минут)

[Q] 

[Профиль]  [ЛС] 

Yrets

Флибустьер

159

Пост 29-Мар-2012 14:42 (спустя 40 минут)

[Q] 

О спасибо, оперативненько. Лови бочку...
[Профиль]  [ЛС] 

Valf66

Морской Волк

Пост 29-Мар-2012 14:54 (спустя 12 минут)

[Q] 

Спасибо за фильм!
[Профиль]  [ЛС] 

tema.mi

Лоцман

Пост 29-Мар-2012 15:30 (спустя 35 минут)

[Q] 

Неплохой фильм...есть очень даже смешные моменты
[Профиль]  [ЛС] 

v_62

Лоцман

Пост 29-Мар-2012 15:40 (спустя 9 минут)

[Q] 

Спасибо, фильм отличный,щека Зеленского распухла после стольких дублей.
[Профиль]  [ЛС] 

alex_bavi

Лоцман

Пост 29-Мар-2012 16:20 (спустя 40 минут)

[Q] 

[Профиль]  [ЛС] 

sergokov

Флибустьер

754

Пост 29-Мар-2012 16:34 (спустя 13 минут)

[Q] 

Глянем
[Профиль]  [ЛС] 

antobrey

Лоцман

Пост 29-Мар-2012 16:36 (спустя 1 минута)

[Q] 

[Профиль]  [ЛС] 

Gvozdochet

Корсар

Пост 29-Мар-2012 17:21 (спустя 45 минут)

[Q] 

[Профиль]  [ЛС] 

dimonpa

Гроза морей

Пост 29-Мар-2012 17:41 (спустя 19 минут)

[Q] 

[Профиль]  [ЛС] 

d0n1k

Лоцман

Пост 29-Мар-2012 18:26 (спустя 44 минуты)

[Q] 

[Профиль]  [ЛС] 

V.Spectre

Морской Волк

Пост 29-Мар-2012 18:26 (спустя 55 секунд)

[Q] 

[Профиль]  [ЛС] 

romansl

Шкипер

Пост 29-Мар-2012 21:00 (спустя 2 часа 33 минуты)

[Q] 

Неплохой фильм!
[Профиль]  [ЛС] 

AlexuS

Морской Волк

Пост 29-Мар-2012 21:06 (спустя 6 минут)

[Q] 

[Профиль]  [ЛС] 

Gromilo

Флибустьер

5504

Пост 29-Мар-2012 21:19 (спустя 12 минут)

[Q] 


_________________
[Профиль]  [ЛС] 

kiryandr

Легенда

63135

Пост 29-Мар-2012 21:33 (спустя 13 минут)

[Q] 


_________________
[Профиль]  [ЛС] 

sekin2011

Штурман

Пост 29-Мар-2012 22:05 (спустя 32 минуты)

[Q] 

Спасибо глянем,автору респект,бочка в трюме!
[Профиль]  [ЛС] 

FreecsteR

Шкипер

Пост 29-Мар-2012 23:29 (спустя 1 час 24 минуты)

[Q] 

[Профиль]  [ЛС] 

Bymara

Морской Волк

Пост 30-Мар-2012 02:01 (спустя 2 часа 31 минута)

[Q] 

фильм клевый советую посмотреть .................а вы задолбали со своими спасибо .....посмотрел отписал.
[Профиль]  [ЛС] 

PaRaNoiK

Штурман

Пост 30-Мар-2012 10:25 (спустя 8 часов)

[Q] 

качаем) интересный фильмец
[Профиль]  [ЛС] 

lucky14

Корсар

Пост 30-Мар-2012 20:36 (спустя 10 часов)

[Q] 

нормуль фильм
[Профиль]  [ЛС] 

Максимус666

Морской Волк

Пост 30-Мар-2012 21:40 (спустя 1 час 3 минуты)

[Q] 

Сказка конечно,как всегда,но ниче посмотреть можно разик...

_________________
Тысяча чертей!
[Профиль]  [ЛС] 

savatey

Корсар

Пост 31-Мар-2012 00:34 (спустя 2 часа 54 минуты)

[Q] 

Хороший фильм ! Спасибо !

_________________
[Профиль]  [ЛС] 

steve11

Штурман

Пост 31-Мар-2012 00:45 (спустя 11 минут)

[Q] 

[Профиль]  [ЛС] 

hmell

Лоцман

Пост 31-Мар-2012 14:31 (спустя 13 часов)

[Q] 

фильм просто отличный!спасибо за раздачу!!!))
[Профиль]  [ЛС] 
Показать сообщения:    
Ответить на тему

Текущее время: Сегодня 20:22

Часовой пояс: GMT + 4



Вы не можете начинать темы
Вы не можете отвечать на сообщения
Вы не можете редактировать свои сообщения
Вы не можете удалять свои сообщения
Вы не можете голосовать в опросах
Вы не можете прикреплять файлы к сообщениям
Вы не можете скачивать файлы

▼ Вниз