ML
     
  Уважаемый Гость!
Вы можете поддержать проект и зарегистрироваться у наших партнеров - онлайн-стратегия MyLands. При регистрации в игре Вы получите код, который сможете активировать после регистрации на pirat.ca и получить 1000 дублонов.

Ваш код:
93dbf9fbdfa06c41d3b5a2c3921149ba36168c41
 
     

8 первых свиданий (Дэвид Додсон, Александр Маляревский) [2012 г., комедия, DVDRip] (Лицензия)

Ответить на тему
 
Автор
Сообщение

Пост 29-Мар-2012 11:58

[Q] 

ara1205

8 первых свиданий
-Год выпуска: 2012
Премьера в мире: 5 апреля 2012
Премьера в России: 5 апреля 2012
Страна: Россия
Жанр: комедия
Продолжительность: 01:23:04
Режиссер: Дэвид Додсон, Александр Маляревский
В ролях: Оксана Акиньшина, Владимир Зеленский, Денис Никифоров, Екатерина Варнава, Сабина Ахмедова, Ильдар Аллабирдин, Сергей Барковский, Наталья Иохвидова, Игорь Жижикин, Елена Кондулайнен
Описание: Вера телезвезда, ее жених Константин — профессиональный теннисист. Они собираются пожениться. Никита врач-ветеринар и красавица-хирург Илона также спешат оформить отношения. Но одно прекрасное утро разрушает все планы. После веселого вечера Вера просыпается в одной постели с Никитой. Решив, что это последствия слишком бурной вечеринки, молодые люди разъезжаются в разные стороны. Но следующим днем все повторяется — Никита и Вера снова вместе, хотя каждый хорошо помнит, как они засыпали дома — каждый у себя… Так происходит всю последующую неделю. Какие-то таинственные силы устраивают эти неожиданные «свидания», кто-то хочет разрушить их браки, а может быть просто доказать, что они созданы друг для друга?-
Качество: DVDRip
Формат: AVI
Видео кодек: XviD
Аудио кодек: MP3
Видео: 688x288 (2.39:1), 25 кадр./сек., XviD MPEG-4 ~961 кБит, 0.19 бит/пикс.
Аудио: 48 кГц, MPEG Layer 3, 2 кан., ~192.00 кБит
General
Complete name : C:\Users\Юличка\Desktop\8.svidanij.2012.O.DVDRip.700MB.avi
Format : AVI
Format/Info : Audio Video Interleave
File size : 691 MiB
Duration : 1h 23mn
Overall bit rate : 1 164 Kbps
Writing application : VirtualDubModRus 1.5.10.2 (build 2542/release)
Writing library : VirtualDub build 34703/release
Video
Format : MPEG-4 Visual
Format profile : Streaming [email protected]
Format settings, BVOP : Yes
Format settings, QPel : No
Format settings, GMC : No warppoints
Format settings, Matrix : Default
Muxing mode : Packed bitstream
Codec ID : XVID
Codec ID/Hint : XviD
Duration : 1h 23mn
Bit rate : 962 Kbps
Width : 688 pixels
Height : 288 pixels
Display aspect ratio : 2.35
Frame rate : 25.000 fps
Resolution : 24 bits
Colorimetry : 4:2:0
Scan type : Progressive
Bits/(Pixel*Frame) : 0.194
Stream size : 572 MiB (83%)
Writing library : XviD 64
Audio
Format : MPEG Audio
Format version : Version 1
Format profile : Layer 3
Codec ID : 55
Codec ID/Hint : MP3
Duration : 1h 23mn
Bit rate mode : Constant
Bit rate : 192 Kbps
Channel(s) : 2 channels
Sampling rate : 48.0 KHz
Resolution : 16 bits
Stream size : 114 MiB (17%)
Alignment : Split accross interleaves
Interleave, duration : 40 ms (1.00 video frame)
Interleave, preload duration : 500 ms
Writing library : LAME3.99.2
Download / Скачать

Хотите скачать бесплатно? Зарегистрируйтесь на сайте (ссылка на регистрацию). Pirat.ca - самый быстрый торрент трекер в рунете!

Как скачивать  ·   Что такое торрент  ·   Рейтинг и ограничения

Пост 29-Мар-2012 16:34 (спустя 4 часа)

Топик был перенесен из форума Наше Кино в форум Новинки (HD|DVD|BD|TV|SAT|PDTV| - Rips)

Linnan
 

lidi

Шкипер

Пост 29-Мар-2012 18:52 (спустя 6 часов)

[Q] 

[Профиль]  [ЛС] 

leonid.

Флибустьер

Пост 29-Мар-2012 22:17 (спустя 3 часа)

[Q] 

спасибо!!!
[Профиль]  [ЛС] 

bondar

Лоцман

Пост 29-Мар-2012 22:25 (спустя 8 минут)

[Q] 

[Профиль]  [ЛС] 

Decter

Корсар

Пост 30-Мар-2012 10:44 (спустя 12 часов)

[Q] 

и как фильм? стоит смотреть?
[Профиль]  [ЛС] 

gulyaka777

Морской Волк

Пост 30-Мар-2012 21:45 (спустя 11 часов)

[Q] 

говорят хороший фильм, посмотрим, спасибо
[Профиль]  [ЛС] 

S_N_A_K_E

Флибустьер

Пост 31-Мар-2012 09:35 (спустя 11 часов)

[Q] 

смотрел на большом телевизоре - качество звука и видео раздачи хорошее. Сам фильм лёгкий для просмотра.
[Профиль]  [ЛС] 

alexis164

Морской Волк

Пост 31-Мар-2012 15:25 (спустя 5 часов)

[Q] 

Мне даже понравилось,кино впрямь очень лёгкое,позитивное,забавное,местами трогательное. Неплохой фильмец для просмотра вдвоём с пассией.
[Профиль]  [ЛС] 

Golsergio

Флибустьер

Пост 31-Мар-2012 20:37 (спустя 5 часов)

[Q] 

[Профиль]  [ЛС] 

E-RTY

Флибустьер

30

Пост 01-Апр-2012 18:13 (спустя 21 час)

[Q] 

Опять Зеля отснял очередную комедию, веселит Нас потехоньку)))
[Профиль]  [ЛС] 

dp

Корсар

Пост 02-Апр-2012 11:37 (спустя 17 часов)

[Q] 

Хороший фильм, легкий.

_________________
Мог стать отличным пианистом, а стал поскудным программистом
[Профиль]  [ЛС] 

Selector

Шкипер

Пост 03-Апр-2012 02:27 (спустя 14 часов)

[Q] 

[Профиль]  [ЛС] 

koks

Корсар

168

Пост 03-Апр-2012 03:18 (спустя 50 минут)

[Q] 


_________________
[Профиль]  [ЛС] 

xprotm

Корсар

5

Пост 03-Апр-2012 20:22 (спустя 17 часов)

[Q] 

в кино смотрел хороший фильм
[Профиль]  [ЛС] 

Chiochanka

Морской Волк

Пост 09-Апр-2012 18:26 (спустя 5 дней)

[Q] 

[Профиль]  [ЛС] 

golden-plae

Пост 19-Апр-2012 00:52 (спустя 9 дней)

[Q] 

Довольно миролюбимый фильм многому учит поэтому такую картину стоит посмотреть.
_________________
ссылка на сторонний ресурс
[Профиль]  [ЛС] 

Пост 05-Май-2012 17:09 (спустя 16 дней)

Топик был перенесен из форума Новинки (HD|DVD|BD|TV|SAT|PDTV| - Rips) в форум Российские фильмы

erchine
 

Lecha1974

Шкипер

Пост 25-Июн-2012 21:03 (спустя 2 месяца 6 дней)

[Q] 

[Профиль]  [ЛС] 
Показать сообщения:    
Ответить на тему

Текущее время: Сегодня 20:23

Часовой пояс: GMT + 4



Вы не можете начинать темы
Вы не можете отвечать на сообщения
Вы не можете редактировать свои сообщения
Вы не можете удалять свои сообщения
Вы не можете голосовать в опросах
Вы не можете прикреплять файлы к сообщениям
Вы не можете скачивать файлы

▼ Вниз