ML
     
  Уважаемый Гость!
Вы можете поддержать проект и зарегистрироваться у наших партнеров - онлайн-стратегия MyLands. При регистрации в игре Вы получите код, который сможете активировать после регистрации на pirat.ca и получить 1000 дублонов.

Ваш код:
21acd5966619d49ad0b90c3305467b4646cc11a8
 
     

Кандагар (Андрей Кавун) [2009 г., боевик, драма, BDRip-AVC] (Лицензия) [internal release]

Ответить на тему
 
Автор
Сообщение

Пост 01-Апр-2012 00:46

[Q] 

zyyx

--Кандагар
«Выжить, чтобы вернуться»
-- Год выпуска: 2009
Мировая премьера: 11 февраля 2010
Российская премьера: 4 февраля 2010, «Централ Партнершип»
Дата выхода DVD: 4 марта 2010, «Флагман-Трейд»
Дата выхода Blu-Ray: 13 мая 2010, «Флагман-Трейд»
Производство: Россия
Жанр: боевик, драма
Продолжительность: 01:43:13
Перевод: Не требуется [Лицензия]
Субтитры: отсутствуют
Режиссер: Андрей Кавун
В ролях
Александр Балуев, Владимир Машков, Андрей Панин, Александр Голубев, Богдан Бенюк, Максим Клянов, Юрий Беляев, Александр Робак, Артем Мазунов, Рамиль Сабитов
Описание
1995 год. Афганистан. Российский грузовой самолет принудительно посажен на аэродроме в столице исламского терроризма — городе Кандагаре. Пятеро российских лётчиков захвачены в плен фанатиками-талибами.
Источник/Качество: BDRip-AVC | Сэмпл
Формат: MKV
Видео кодек: H.264
Аудио кодек: AC3
Видео: 1056x448, 23.976 fps, 1578 Kbps, 0.139 bit/pixel
Аудио: 48.0 KHz, 6 ch, 448 Kbps
General
Unique ID : 220915678716288394553801793751075909572 (0xA632CFE4A2634AEF9B810E59DD45EFC4)
Complete name : K:\zyyx\Kandagar.2009.BDRip-AVC.zyyx.mkv
Format : Matroska
Format version : Version 2
File size : 1.46 GiB
Duration : 1h 43mn
Overall bit rate : 2 026 Kbps
Movie name : Кандагар 2009 - Release for zyyx (pirat.ca)
Encoded date : UTC 2012-03-31 20:34:06
Writing application : mkvmerge v4.9.1 ('Ich will') сборка от Jul 11 2011 23:53:15
Writing library : libebml v1.2.1 + libmatroska v1.1.1
Video
ID : 1
Format : AVC
Format/Info : Advanced Video Codec
Format profile : [email protected]
Format settings, CABAC : Yes
Format settings, ReFrames : 16 frames
Muxing mode : Header stripping
Codec ID : V_MPEG4/ISO/AVC
Duration : 1h 43mn
Bit rate : 1 578 Kbps
Width : 1 056 pixels
Height : 448 pixels
Display aspect ratio : 2.35:1
Frame rate : 23.976 fps
Color space : YUV
Chroma subsampling : 4:2:0
Bit depth : 8 bits
Scan type : Progressive
Bits/(Pixel*Frame) : 0.139
Stream size : 1.11 GiB (76%)
Writing library : x264 core 119 r2106 07efeb4
Default : Yes
Forced : No
Audio
ID : 2
Format : AC-3
Format/Info : Audio Coding 3
Mode extension : CM (complete main)
Muxing mode : Header stripping
Codec ID : A_AC3
Duration : 1h 43mn
Bit rate mode : Constant
Bit rate : 448 Kbps
Channel(s) : 6 channels
Channel positions : Front: L C R, Side: L R, LFE
Sampling rate : 48.0 KHz
Bit depth : 16 bits
Compression mode : Lossy
Stream size : 331 MiB (22%)
Default : Yes
Forced : No






Download / Скачать

Хотите скачать бесплатно? Зарегистрируйтесь на сайте (ссылка на регистрацию). Pirat.ca - самый быстрый торрент трекер в рунете!

Как скачивать  ·   Что такое торрент  ·   Рейтинг и ограничения

Пост 01-Апр-2012 06:20 (спустя 5 часов)

Топик был перенесен из форума Наше Кино в форум Российские фильмы

genkasper
 

Mitiaj

Штурман

Пост 08-Апр-2012 21:28 (спустя 7 дней)

[Q] 

Хороший фильм!
[Профиль]  [ЛС] 

Gvozdochet

Корсар

Пост 25-Май-2013 09:54 (спустя 1 год 1 месяц)

[Q] 

[Профиль]  [ЛС] 

Kinsler

Морской Волк

Пост 15-Дек-2013 23:13 (спустя 6 месяцев 21 день)

[Q] 

Одобрямс! можно посмотреть!))
[Профиль]  [ЛС] 

Scorpion7474

Флибустьер

Пост 20-Мар-2014 13:16 (спустя 3 месяца 4 дня)

[Q] 

Одобрямс! Лови бочку
[Профиль]  [ЛС] 

NektoWaso

Флибустьер

Пост 24-Мар-2014 15:56 (спустя 4 дня)

[Q] 

добротное кино, отличные актеры!
[Профиль]  [ЛС] 
Показать сообщения:    
Ответить на тему

Текущее время: Сегодня 23:19

Часовой пояс: GMT + 4



Вы не можете начинать темы
Вы не можете отвечать на сообщения
Вы не можете редактировать свои сообщения
Вы не можете удалять свои сообщения
Вы не можете голосовать в опросах
Вы не можете прикреплять файлы к сообщениям
Вы не можете скачивать файлы

▼ Вниз