ML
     
  Уважаемый Гость!
Вы можете поддержать проект и зарегистрироваться у наших партнеров - онлайн-стратегия MyLands. При регистрации в игре Вы получите код, который сможете активировать после регистрации на pirat.ca и получить 1000 дублонов.

Ваш код:
ec3b26eefbcdc72e08e9fd33c6846bb2ca10f8b1
 
     

Самоубийцы (Егор Баранов) [2012 г., комедия, DVDRip] [Лицензия]

Страницы :  1, 2  След.

Ответить на тему
 
Автор
Сообщение

Пост 01-Апр-2012 01:00

[Q] 

Amethyst

Самоубийцы«Иди в кино, не дай им умереть»
Год выпуска: 2012
Мировая премьера: 1 марта 2012
Российская премьера: 1 марта 2012, «Парадиз»
Производство: Россия
Жанр: Комедия
Продолжительность: 01:29:13
Перевод: Не требуется [Лицензия]
Режиссер: Егор Баранов
В ролях: Евгений Стычкин, Алексей Воробьев, Оксана Акиньшина, Гоша Куценко, Вилле Хаапасало, Марат Башаров, Михаил Полицеймако, Александр Стриженов, Евгений Рахманько, Даниил Меркулов
Описание: Комедия о головокружительных приключениях трех друзей — Алексея, Толика и Марины, которые решили свести счеты с жизнью. Собрав вокруг себя неприкаянных единомышленников, новые друзья решают напоследок исполнить по последнему желанию друг друга. Это, на первый взгляд, безобидное решение превращает жизнь героев в непрерывный калейдоскоп феерических событий. Чем активнее друзья исполняют самые неожиданные желания друг друга, тем невероятнее истории, в которые они попадают.


Источник/Качество: DVDRip
Формат: AVI
Видео кодек: XviD
Аудио кодек: AC3
Видео: XviD, 720x304, 1734 kb/s, 25.000fps
Аудио: AC3, 448 kb/s (6 ch), 48.0 KHz
Общее
Полное имя : D:\Торенты\Samoybiycu.2012.DVDRip.1400Mb.[pirat.ca].avi
Формат : AVI
Формат/Информация : Audio Video Interleave
Размер файла : 1,37 Гбайт
Продолжительность : 1 ч. 29 м.
Общий поток : 2192 Кбит/сек
Программа кодирования : VirtualDubMod 1.5.10.3| (build 2550/release)
Библиотека кодирования : VirtualDubMod build 2550/release
Видео
Идентификатор : 0
Формат : MPEG-4 Visual
Профиль формата : Advanced [email protected]
Параметр BVOP формата : 1
Параметр QPel формата : Нет
Параметр GMC формата : Без точки перехода
Параметр матрицы формата : Default (MPEG)
Идентификатор кодека : XVID
Идентификатор кодека/Подсказка : XviD
Продолжительность : 1 ч. 29 м.
Битрейт : 1734 Кбит/сек
Ширина : 720 пикселей
Высота : 304 пикселя
Соотношение сторон : 2,35:1
Частота кадров : 25,000 кадров/сек
Цветовое пространство : YUV
Субдискретизация насыщенности : 4:2:0
Битовая глубина : 8 бит
Тип развёртки : Прогрессивная
Метод сжатия : С потерями
Бит/(Пиксели*Кадры) : 0.317
Размер потока : 1,08 Гбайт (79%)
Библиотека кодирования : XviD 1.2.1 (UTC 2008-12-04)
Аудио
Идентификатор : 1
Формат : AC-3
Формат/Информация : Audio Coding 3
Расширение режима : CM (complete main)
Идентификатор кодека : 2000
Продолжительность : 1 ч. 29 м.
Вид битрейта : Постоянный
Битрейт : 448 Кбит/сек
Каналы : 6 каналов
Расположение каналов : Front: L C R, Side: L R, LFE
Частота : 48,0 КГц
Битовая глубина : 16 бит
Метод сжатия : С потерями
Размер потока : 286 Мбайт (20%)
Выравнивание : Разделение по промежуткам
Продолжительность промежутка : 40 мс. (1,00 видеокадр)
Время предзагрузки промежутка : 500 мс.
Download / Скачать

Хотите скачать бесплатно? Зарегистрируйтесь на сайте (ссылка на регистрацию). Pirat.ca - самый быстрый торрент трекер в рунете!

Как скачивать  ·   Что такое торрент  ·   Рейтинг и ограничения



Последний раз редактировалось: Amethyst (2012-04-01 09:04), всего редактировалось 8 раз(а)

Evgen

Морской Волк

Пост 01-Апр-2012 01:01 (спустя 1 минута)

[Q] 

как скачать???

_________________
[Профиль]  [ЛС] 

Пост 01-Апр-2012 06:24 (спустя 5 часов)

Топик был перенесен из форума Наше Кино в форум Новинки (HD|DVD|BD|TV|SAT|PDTV| - Rips)

genkasper
 

shteker

Морской Волк

Пост 01-Апр-2012 07:48 (спустя 6 часов)

[Q] 

Прикольный фильмец.......
[Профиль]  [ЛС] 

dimonpa

Гроза морей

Пост 01-Апр-2012 08:04 (спустя 16 минут)

[Q] 

[Профиль]  [ЛС] 

Soviet DJ

Корсар

Пост 01-Апр-2012 08:19 (спустя 15 минут)

[Q] 

А где лицензионный DVD, с которого делали рип?

_________________
Мы - Soviet DJ's, господа!
[Профиль]  [ЛС] 

Sonic

Лоцман

Пост 01-Апр-2012 08:58 (спустя 38 минут)

[Q] 

Качаем )
[Профиль]  [ЛС] 

A.Net

Корсар

Пост 01-Апр-2012 09:44 (спустя 45 минут)

[Q] 

[Профиль]  [ЛС] 

Znoi

Флибустьер

1163

Пост 01-Апр-2012 11:06 (спустя 1 час 22 минуты)

[Q] 

[Профиль]  [ЛС] 

vasi

Корсар

Пост 01-Апр-2012 11:19 (спустя 13 минут)

[Q] 

[Профиль]  [ЛС] 

VMarkus

Шкипер

Пост 01-Апр-2012 14:09 (спустя 2 часа 50 минут)

[Q] 

Спасибо, заценим )
[Профиль]  [ЛС] 

OleksBy

Корсар

Пост 01-Апр-2012 17:54 (спустя 3 часа)

[Q] 

[Профиль]  [ЛС] 

Apple Phone

Шкипер

Пост 01-Апр-2012 18:23 (спустя 28 минут)

[Q] 

СПАСИБО!!!!!!!

_________________
Advanced Micro Devices
[Профиль]  [ЛС] 

Valf66

Морской Волк

Пост 01-Апр-2012 18:43 (спустя 20 минут)

[Q] 

Прикольная комедия!
[Профиль]  [ЛС] 

Processor

Корсар

68

Пост 01-Апр-2012 19:56 (спустя 1 час 13 минут)

[Q] 

Посмотрим
[Профиль]  [ЛС] 

Воффка

Морской Волк

Пост 02-Апр-2012 05:20 (спустя 9 часов)

[Q] 

Прикололо. Спасибо

_________________
-= Водка, шлюхи, Death Metal!!!=-
[Профиль]  [ЛС] 

sergokov

Флибустьер

754

Пост 02-Апр-2012 07:07 (спустя 1 час 46 минут)

[Q] 

Глянем.
[Профиль]  [ЛС] 

Selim

Корсар

Пост 02-Апр-2012 10:50 (спустя 3 часа)

[Q] 

Что-то критики молчат
[Профиль]  [ЛС] 

Hombre250

Морской Волк

Пост 02-Апр-2012 11:17 (спустя 26 минут)

[Q] 

гляну для разнообразия
[Профиль]  [ЛС] 

pokermike299

Корсар

Пост 02-Апр-2012 11:33 (спустя 16 минут)

[Q] 

памотрим
[Профиль]  [ЛС] 

Susler

Морской Волк

Пост 02-Апр-2012 17:55 (спустя 6 часов)

[Q] 

Давно ждал.
[Профиль]  [ЛС] 

Smail

Корсар

5969

Пост 02-Апр-2012 17:58 (спустя 2 минуты)

[Q] 

Посмотрим. dc

_________________
[Профиль]  [ЛС] 

sergokov

Флибустьер

754

Пост 02-Апр-2012 18:58 (спустя 59 минут)

[Q] 

Прикольное только начало фильма, далее полная бредятина.
[Профиль]  [ЛС] 

Sergi4

Гроза морей

Пост 03-Апр-2012 09:14 (спустя 14 часов)

[Q] 

[Профиль]  [ЛС] 

SaNyABA89

Морской Волк

Пост 03-Апр-2012 09:47 (спустя 32 минуты)

[Q] 

спасибо, актеры куль

_________________
Талантам нужно помогать, бездарности пробьются сами!
[Профиль]  [ЛС] 

Selim

Корсар

Пост 03-Апр-2012 10:09 (спустя 22 минуты)

[Q] 

Весь фильм полный бред. Но судя по восторженным высказываниям у него есть свой зритель. Комедия должна быть смешной а не тупой. Короче любителям камеди клаба посвящается. Куда катится этот мир...
[Профиль]  [ЛС] 

Aleks44

Гроза морей

Пост 03-Апр-2012 11:56 (спустя 1 час 46 минут)

[Q] 

Фильм вообще не держит возле экрана можно пойти чай попить во время просмотра ничего не потеряешь нужно ставить какие то ограничения а то сосулька в глаз не для всех я в этот момент с ребенком смотрел либо ставить с 16 лет, комедия с элементами черного юмора и боевика, Фильм так средний
[Профиль]  [ЛС] 

savatey

Корсар

Пост 03-Апр-2012 16:49 (спустя 4 часа)

[Q] 

Спасибо ! Есть прикольные моменты , как говорится каждому свое .

_________________
[Профиль]  [ЛС] 

koks

Корсар

168

Пост 03-Апр-2012 17:01 (спустя 11 минут)

[Q] 


_________________
[Профиль]  [ЛС] 

maksimbond

Корсар

2

Пост 04-Апр-2012 19:36 (спустя 1 день 2 часа)

[Q] 

а я остался довелен, хороший фильм
[Профиль]  [ЛС] 
Показать сообщения:    
Ответить на тему

Текущее время: Сегодня 03:45

Часовой пояс: GMT + 4



Вы не можете начинать темы
Вы не можете отвечать на сообщения
Вы не можете редактировать свои сообщения
Вы не можете удалять свои сообщения
Вы не можете голосовать в опросах
Вы не можете прикреплять файлы к сообщениям
Вы не можете скачивать файлы

▼ Вниз