ML
     
  Уважаемый Гость!
Вы можете поддержать проект и зарегистрироваться у наших партнеров - онлайн-стратегия MyLands. При регистрации в игре Вы получите код, который сможете активировать после регистрации на pirat.ca и получить 1000 дублонов.

Ваш код:
bc31d8aef74c92e19ad67e34a8fa63c3b9b812fb
 
     

Самоубийцы (Егор Баранов) [2012 г., комедия, DVDRip] (Лицензия)

Ответить на тему
 
Автор
Сообщение

Пост 01-Апр-2012 02:08

[Q] 

zyyx

--Самоубийцы
«Иди в кино, не дай им умереть»
-- Год выпуска: 2012
Мировая премьера: 1 марта 2012
Российская премьера: 1 марта 2012, «Парадиз»
Дата выхода DVD: 22 марта 2012, «Новый Диск»
Производство: Россия
Жанр: комедия
Продолжительность: 01:29:13
Перевод: Не требуется [Лицензия]
Субтитры: отсутствуют
Режиссер: Егор Баранов
В ролях: Евгений Стычкин, Алексей Воробьев, Оксана Акиньшина, Гоша Куценко, Вилле Хаапасало, Марат Башаров, Михаил Полицеймако, Александр Стриженов, Евгений Рахманько, Даниил Меркулов
Описание: Комедия о головокружительных приключениях трех друзей — Алексея, Толика и Марины, которые решили свести счеты с жизнью. Собрав вокруг себя неприкаянных единомышленников, новые друзья решают напоследок исполнить по последнему желанию друг друга. Это, на первый взгляд, безобидное решение превращает жизнь героев в непрерывный калейдоскоп феерических событий. Чем активнее друзья исполняют самые неожиданные желания друг друга, тем невероятнее истории, в которые они попадают.
Источник/Качество: DVDRip | Сэмпл
Формат: AVI
Видео кодек: XviD
Аудио кодек: MP3
Видео: 656x272 (2.41:1), 25 fps, XviD build 50, 960 kbps avg, 0.22 bit/pixel
Аудио: 48 kHz, MPEG Layer 3, 2 ch, 128.00 kbps avg
General
Complete name : F:\Samoybiycu.2012.O.DVDRip.700Mb.avi
Format : AVI
Format/Info : Audio Video Interleave
File size : 701 MiB
Duration : 1h 29mn
Overall bit rate : 1 098 Kbps
Writing application : VirtualDubMod 1.5.10.3 | www.virtualdub-fr.org || (build 2550/release)
Writing library : VirtualDubMod build 2550/release
Video
ID : 0
Format : MPEG-4 Visual
Format profile : Advanced [email protected]
Format settings, BVOP : 1
Format settings, QPel : No
Format settings, GMC : No warppoints
Format settings, Matrix : Default (MPEG)
Codec ID : XVID
Codec ID/Hint : XviD
Duration : 1h 29mn
Bit rate : 960 Kbps
Width : 656 pixels
Height : 272 pixels
Display aspect ratio : 2.40:1
Frame rate : 25.000 fps
Color space : YUV
Chroma subsampling : 4:2:0
Bit depth : 8 bits
Scan type : Progressive
Compression mode : Lossy
Bits/(Pixel*Frame) : 0.215
Stream size : 613 MiB (87%)
Writing library : XviD 1.2.1 (UTC 2008-12-04)
Audio
ID : 1
Format : MPEG Audio
Format version : Version 1
Format profile : Layer 3
Codec ID : 55
Codec ID/Hint : MP3
Duration : 1h 29mn
Bit rate mode : Constant
Bit rate : 128 Kbps
Channel(s) : 2 channels
Sampling rate : 48.0 KHz
Compression mode : Lossy
Stream size : 81.7 MiB (12%)
Alignment : Aligned on interleaves
Interleave, duration : 40 ms (1.00 video frame)
Interleave, preload duration : 504 ms
Writing library : L3.99r
Encoding settings : -m s -V 4 -q 2 -lowpass 17 -b 128





Download / Скачать

Хотите скачать бесплатно? Зарегистрируйтесь на сайте (ссылка на регистрацию). Pirat.ca - самый быстрый торрент трекер в рунете!

Как скачивать  ·   Что такое торрент  ·   Рейтинг и ограничения



Последний раз редактировалось: zyyx (2012-04-01 10:51), всего редактировалось 1 раз

wwwboss13421

Штурман

Пост 01-Апр-2012 02:50 (спустя 42 минуты)

[Q] 

Ром в трюме,за труды;)

_________________
[Профиль]  [ЛС] 

Пост 01-Апр-2012 06:39 (спустя 3 часа)

Топик был перенесен из форума Наше Кино в форум Новинки (HD|DVD|BD|TV|SAT|PDTV| - Rips)

genkasper
 

Pesok

Гроза морей

Пост 01-Апр-2012 08:37 (спустя 5 часов)

[Q] 

Спасибо, гляну

_________________
[Профиль]  [ЛС] 

Engener

Морской Волк

Пост 01-Апр-2012 17:04 (спустя 8 часов)

[Q] 

В стране прокатилась волна подростковых самоубийств. Выпускать такие фильмы с такими названиями безнравственно.

_________________
Остановите Землю, я сойду!
[Профиль]  [ЛС] 

Processor

Корсар

68

Пост 01-Апр-2012 19:55 (спустя 2 часа 51 минута)

[Q] 

Спасибо!
[Профиль]  [ЛС] 

Максимус666

Морской Волк

Пост 01-Апр-2012 22:39 (спустя 2 часа 43 минуты)

[Q] 

Фильм на разик и то я до конца смотрел от нечего делать уже,раздающему за труды

_________________
Тысяча чертей!
[Профиль]  [ЛС] 

lordval77

Штурман

Пост 01-Апр-2012 23:18 (спустя 39 минут)

[Q] 

г..но
[Профиль]  [ЛС] 

bigden1974

Шкипер

Пост 02-Апр-2012 00:30 (спустя 1 час 11 минут)

[Q] 

название неполиткорректно
[Профиль]  [ЛС] 

FreecsteR

Шкипер

Пост 02-Апр-2012 01:57 (спустя 1 час 27 минут)

[Q] 

[Профиль]  [ЛС] 

Selector

Шкипер

Пост 03-Апр-2012 02:26 (спустя 1 день)

[Q] 

[Профиль]  [ЛС] 

Sergi4

Гроза морей

Пост 03-Апр-2012 09:09 (спустя 6 часов)

[Q] 

[Профиль]  [ЛС] 

xprotm

Корсар

5

Пост 03-Апр-2012 20:18 (спустя 11 часов)

[Q] 

хороший фильм лёгкий
[Профиль]  [ЛС] 

ALIEN

Морской Волк

Пост 17-Апр-2012 21:54 (спустя 14 дней)

[Q] 


_________________
Бойтесь близости, недалеких, людей.
[Профиль]  [ЛС] 

Пост 05-Май-2012 17:09 (спустя 17 дней)

Топик был перенесен из форума Новинки (HD|DVD|BD|TV|SAT|PDTV| - Rips) в форум Российские фильмы

erchine
 

alexsoid

Шкипер

Пост 09-Май-2012 18:15 (спустя 21 день)

[Q] 

начало прикольное,а концовка не очень
[Профиль]  [ЛС] 
Показать сообщения:    
Ответить на тему

Текущее время: Сегодня 11:57

Часовой пояс: GMT + 4



Вы не можете начинать темы
Вы не можете отвечать на сообщения
Вы не можете редактировать свои сообщения
Вы не можете удалять свои сообщения
Вы не можете голосовать в опросах
Вы не можете прикреплять файлы к сообщениям
Вы не можете скачивать файлы

▼ Вниз