ML
     
  Уважаемый Гость!
Вы можете поддержать проект и зарегистрироваться у наших партнеров - онлайн-стратегия MyLands. При регистрации в игре Вы получите код, который сможете активировать после регистрации на pirat.ca и получить 1000 дублонов.

Ваш код:
156f85568ae63e45e07ac461c96a83ba1a876b0a
 
     

Мамы (Евгений Абызов, Сарик Андреасян, Алан Бадоев) [2012 г., мелодрама, комедия, BDRip-AVC] (Лицензия) [internal release]

Ответить на тему
 
Автор
Сообщение

Пост 01-Апр-2012 11:18

[Q] 

zyyx

--Мамы
«Доброе кино»
-- Год выпуска: 2012
Мировая премьера: 1 марта 2012
Российская премьера: 1 марта 2012, «Каропрокат»
Дата выхода DVD: 29 марта 2012, «CP-Digital»
Дата выхода Blu-Ray: 5 апреля 2012, «CP-Digital»
Производство: Россия
Жанр: мелодрама, комедия
Продолжительность: 01:41:20
Перевод: Не требуется [Лицензия]
Субтитры: отсутствуют
Режиссер: Евгений Абызов, Сарик Андреасян, Алан Бадоев
В ролях: Сергей Безруков, Дмитрий Дюжев, Михаил Пореченков, Егор Бероев, Гоша Куценко, Петр Федоров, Федор Добронравов, Иван Добронравов, Игорь Верник, Александр Олешко
Описание: Каждый год в день 8-го марта телефонные сети России передают миллионы звонков и смс-сообщений. Трудолюбивые аналитики подсчитали, что абсолютное большинство телефонных звонков адресовано самым главным женщинам в жизни каждого человека — мамам.
Мы выросли, и заготовленные заранее аппликации и букеты цветов, купленные до маминого пробуждения, — давно забытые детские привычки. Отныне мы поздравляем мам по-взрослому: дожидаемся, когда они проснутся, и набираем телефонный номер.
Но что, если случится коллапс, и из-за пиковой перегруженности телефонная сеть рухнет? Итак, связи нет. Что делать? Кто-то будет ждать, пока её восстановят — поздравит вечером или даже на следующий день. А другие, как и герои нашего киноальманаха, поменяют свои планы, чтобы поздравить своих мам именно сегодня… лично… как в детстве!
Восемь разных поздравлений и жизненных ситуаций. Восемь разных МАМ.
Источник/Качество: BDRip-AVC | Сэмпл
Формат: MKV
Видео кодек: H.264
Аудио кодек: AC3
Видео: 1056x448, 25.000 fps, 1680 Kbps, 0.142 bit/pixel
Аудио: 48.0 KHz, 6 ch, 384 Kbps
General
Unique ID : 223294319202383449305057332247878690073 (0xA7FCEBEC6D5ED4E4BDCB7E5AC0BFE519)
Complete name : K:\zyyx\Mama.2012.BDRip-AVC.zyyx.mkv
Format : Matroska
Format version : Version 2
File size : 1.46 GiB
Duration : 1h 41mn
Overall bit rate : 2 064 Kbps
Movie name : Мамы 2012 - Release for zyyx (pirat.ca)
Encoded date : UTC 2012-04-01 07:24:21
Writing application : mkvmerge v4.9.1 ('Ich will') сборка от Jul 11 2011 23:53:15
Writing library : libebml v1.2.1 + libmatroska v1.1.1
Video
ID : 1
Format : AVC
Format/Info : Advanced Video Codec
Format profile : [email protected]
Format settings, CABAC : Yes
Format settings, ReFrames : 16 frames
Muxing mode : Header stripping
Codec ID : V_MPEG4/ISO/AVC
Duration : 1h 41mn
Bit rate : 1 680 Kbps
Width : 1 056 pixels
Height : 448 pixels
Display aspect ratio : 2.35:1
Frame rate : 25.000 fps
Color space : YUV
Chroma subsampling : 4:2:0
Bit depth : 8 bits
Scan type : Progressive
Bits/(Pixel*Frame) : 0.142
Stream size : 1.16 GiB (79%)
Writing library : x264 core 116 r2044 392e762
Default : Yes
Forced : No
Audio
ID : 2
Format : AC-3
Format/Info : Audio Coding 3
Mode extension : CM (complete main)
Muxing mode : Header stripping
Codec ID : A_AC3
Duration : 1h 41mn
Bit rate mode : Constant
Bit rate : 384 Kbps
Channel(s) : 6 channels
Channel positions : Front: L C R, Side: L R, LFE
Sampling rate : 48.0 KHz
Bit depth : 16 bits
Compression mode : Lossy
Stream size : 278 MiB (19%)
Default : Yes
Forced : No








Download / Скачать

Хотите скачать бесплатно? Зарегистрируйтесь на сайте (ссылка на регистрацию). Pirat.ca - самый быстрый торрент трекер в рунете!

Как скачивать  ·   Что такое торрент  ·   Рейтинг и ограничения

Пост 01-Апр-2012 11:37 (спустя 18 минут)

Топик был перенесен из форума Наше Кино в форум Новинки (HD|DVD|BD|TV|SAT|PDTV| - Rips)

genkasper
 

lidi

Шкипер

Пост 01-Апр-2012 11:57 (спустя 39 минут)

[Q] 

[Профиль]  [ЛС] 

and28

Морской Волк

Пост 01-Апр-2012 22:58 (спустя 11 часов)

[Q] 

[Профиль]  [ЛС] 

savatey

Корсар

Пост 02-Апр-2012 17:29 (спустя 18 часов)

[Q] 

Режиссеры ; Абызов , Бадоев , Андреасян . В ролях одни мужские фамилии а фильм то называется МАМЫ .

_________________
[Профиль]  [ЛС] 

Selector

Шкипер

Пост 03-Апр-2012 02:26 (спустя 8 часов)

[Q] 

[Профиль]  [ЛС] 

xprotm

Корсар

5

Пост 03-Апр-2012 20:18 (спустя 17 часов)

[Q] 

[Профиль]  [ЛС] 

burunduk-73

Лоцман

Пост 04-Апр-2012 12:59 (спустя 16 часов)

[Q] 

Фильм и в правду очень добрый и хороший!!!
[Профиль]  [ЛС] 

Chiochanka

Морской Волк

Пост 09-Апр-2012 18:22 (спустя 5 дней)

[Q] 

[Профиль]  [ЛС] 

G.A.N

Лоцман

Пост 10-Апр-2012 21:28 (спустя 1 день 3 часа)

[Q] 

Фильм не плохой)
[Профиль]  [ЛС] 

pokermike299

Корсар

Пост 14-Апр-2012 07:39 (спустя 3 дня)

[Q] 

фильм шедевр!!!! давно таких наши не снимали. плакал всю концовку. безруков красавец.
[Профиль]  [ЛС] 

Mitiaj

Штурман

Пост 21-Апр-2012 21:38 (спустя 7 дней)

[Q] 

[Профиль]  [ЛС] 

Fes

Шкипер

Пост 22-Апр-2012 21:45 (спустя 1 день)

[Q] 

слышал что хороший фильм.. посмотрим
[Профиль]  [ЛС] 

Пост 26-Апр-2012 14:56 (спустя 3 дня)

Топик был перенесен из форума Новинки (HD|DVD|BD|TV|SAT|PDTV| - Rips) в форум Российские фильмы

ara1205
 

www ccm

Лоцман

Пост 09-Май-2012 09:08 (спустя 16 дней)

[Q] 

спасибо
[Профиль]  [ЛС] 

goroskop

Лоцман

Пост 10-Май-2012 14:31 (спустя 1 день 5 часов)

[Q] 

Такую тему загубить... Бездари
[Профиль]  [ЛС] 

Sergi4

Гроза морей

Пост 25-Май-2012 11:34 (спустя 14 дней)

[Q] 

Спасибо
[Профиль]  [ЛС] 

Kostia

Лоцман

Пост 28-Май-2012 19:36 (спустя 3 дня)

[Q] 

Сам такой не хороший. А фильм зачетный.
[Профиль]  [ЛС] 

FeudorM

Корсар

Пост 19-Июн-2012 19:47 (спустя 22 дня)

[Q] 

[Профиль]  [ЛС] 

got70

Легенда

752

Пост 19-Янв-2013 12:25 (спустя 6 месяцев 29 дней)

[Q] 


_________________
Добро непременно победит зло!Непременно...Затем поставит на колени,и зверски УБЬЁТ!
[Профиль]  [ЛС] 

smartboy

Корсар

Пост 20-Янв-2013 17:01 (спустя 1 день 4 часа)

[Q] 

[Профиль]  [ЛС] 

Biven

Штурман

Пост 23-Янв-2013 09:00 (спустя 2 дня 15 часов)

[Q] 

Давно собирался посмотреть, прокат прозевал. Фильм ничего, смотреть приятно. Рекомендую тем, кому сильно не претить Российский кинопрокат. Кому же нравится американская батва качать не рекомендую.

_________________
Рожденный строителем не пить не может!
[Профиль]  [ЛС] 

EgikGeks7

Штурман

Пост 25-Окт-2013 20:27 (спустя 9 месяцев 2 дня)

[Q] 

спасибо! Одобрямс!
[Профиль]  [ЛС] 
Показать сообщения:    
Ответить на тему

Текущее время: Сегодня 21:59

Часовой пояс: GMT + 4



Вы не можете начинать темы
Вы не можете отвечать на сообщения
Вы не можете редактировать свои сообщения
Вы не можете удалять свои сообщения
Вы не можете голосовать в опросах
Вы не можете прикреплять файлы к сообщениям
Вы не можете скачивать файлы

▼ Вниз