ML
     
  Уважаемый Гость!
Вы можете поддержать проект и зарегистрироваться у наших партнеров - онлайн-стратегия MyLands. При регистрации в игре Вы получите код, который сможете активировать после регистрации на pirat.ca и получить 1000 дублонов.

Ваш код:
ef8b3e8cd07bec918273586d22e5aaf18e0ae925
 
     

Гений (Виктор Сергеев) [1991 г., Комедия, криминал, DVDRip]

Ответить на тему
 
Автор
Сообщение

Пост 04-Дек-2011 10:20

[Q] 

avzaytsev

Морской Волк

Гений

Год выпуска: 1991
Производство: СССР
Жанр: Комедия, криминал
Продолжительность: 02:33:01
Режиссер: Виктор Сергеев
В ролях: Виктор Ильичёв, Иннокентий Смоктуновский, Виктор Смирнов, Анатолий Кузнецов, Лев Лемке, Лариса Белогурова, Валентина Талызина, Борис Клюев, Аркадий Коваль, Александр Абдулов, Виктор Костецкий, Михаил Морозов, Алина Михайлова, Сергей Проханов, Владимир Баранов, Юрий Кузнецов, Альгис Матулёнис, Лев Вигдоров, Закир Мамедов, Артур Арутюнян, Ромуальд Макаренко, Даниил Сергеев, Виктор Сергеев, Тамара Шемпель, Георгий Мартиросян
Описание: События фильма происходят в 90-е годы 20 века в России. Сергей Ненашев типичный представитель бизнеса того времени. Когда то он был успешным изобретателем, о чем свидетельствует масса различных патентов. Теперь же он бизнесмен, который проворачивает ради денег всевозможные махинации. За ним уже длительное время ведут слежку сотрудники милиции. Но благодаря изобретательности Сергея поймать его на месте преступления не удается ни разу. И даже когда он сам приходит за помощью, ему удается уйти от наказания, и остаться на свободе.
КиноПоиск
Источник/Качество: DVDRip
Формат: AVI
Видео кодек: XviD
Аудио кодек: AC3
Видео: 576x416 (1.38:1), 25 fps, XviD MPEG-4 ~1042 kbps avg, 0.17 bit/pixel
Аудио: 48 kHz, AC3 Dolby Digital, 3/2 (L,C,R,l,r) + LFE ch, ~224 kbps
Общее
Полное имя : Гений.avi
Формат : AVI
Формат/Информация : Audio Video Interleave
Размер файла : 1,36 Гбайт
Продолжительность : 2 ч. 33 м.
Общий поток : 1277 Кбит/сек
Программа кодирования : VirtualDubModRus 1.5.10.2 (build 2540/release)
Библиотека кодирования : VirtualDubMod build 2540/release
Видео
Идентификатор : 0
Формат : MPEG-4 Visual
Профиль формата : Advanced [email protected]
Параметр BVOP формата : 2
Параметр QPel формата : Нет
Параметр GMC формата : Без точки перехода
Параметр матрицы формата : Default (MPEG)
Режим смешивания : Сжатый битовый поток
Идентификатор кодека : DIVX
Идентификатор кодека/Информация : Project Mayo
Идентификатор кодека/Подсказка : DivX 4
Продолжительность : 2 ч. 33 м.
Битрейт : 1043 Кбит/сек
Ширина : 576 пикселей
Высота : 416 пикселей
Соотношение сторон : 1,385
Частота кадров : 25,000 кадров/сек
Цветовое пространство : YUV
Субдискретизация насыщенности : 4:2:0
Битовая глубина : 8 бит
Тип развёртки : Прогрессивная
Метод сжатия : С потерями
Бит/(Пиксели*Кадры) : 0.174
Размер потока : 1,11 Гбайт (82%)
Библиотека кодирования : XviD 1.2.0SMP (UTC 2006-01-08)
Аудио
Идентификатор : 1
Формат : AC-3
Формат/Информация : Audio Coding 3
Расширение режима : CM (complete main)
Идентификатор кодека : 2000
Продолжительность : 2 ч. 33 м.
Вид битрейта : Постоянный
Битрейт : 224 Кбит/сек
Каналы : 6 каналов
Расположение каналов : Front: L C R, Side: L R, LFE
Частота : 48,0 КГц
Битовая глубина : 16 бит
Метод сжатия : С потерями
Размер потока : 245 Мбайт (18%)
Выравнивание : Разделение по промежуткам
Продолжительность промежутка : 40 мс. (1,00 видеокадр)
Время предзагрузки промежутка : 500 мс.



Download / Скачать

Хотите скачать бесплатно? Зарегистрируйтесь на сайте (ссылка на регистрацию). Pirat.ca - самый быстрый торрент трекер в рунете!

Как скачивать  ·   Что такое торрент  ·   Рейтинг и ограничения

Пост 04-Дек-2011 10:35 (спустя 14 минут)

Топик был перенесен из форума Наше Кино в форум Российские фильмы

Skinwalker
 

Djiguly

Корсар

102

Пост 11-Дек-2011 14:57 (спустя 7 дней)

[Q] 

Гения смотрел давненько.Хороший перестроечный фильм(когда ни денег ни репутации.фильмец-90х)
СПАСИБО за релиз!!!Жёнушка в восторге от Абдулова.

_________________
Djiguly
[Профиль]  [ЛС] 

Odessa222

Штурман

Пост 12-Дек-2011 22:35 (спустя 1 день 7 часов)

[Q] 

Фильм славный!
[Профиль]  [ЛС] 

zetrob

Легенда

Пост 25-Дек-2011 23:01 (спустя 13 дней)

[Q] 

Фильму 5+. За Абдулова- Спасибо!

_________________

[Профиль]  [ЛС] 

megamastor

2827

Пост 30-Апр-2012 14:45 (спустя 4 месяца 4 дня)

[Q] 

Отличный фильм! Держи бочонок!
[Профиль]  [ЛС] 

Kodeks50

Шкипер

Пост 25-Мар-2013 21:47 (спустя 10 месяцев 25 дней)

[Q] 

Вот здесь http://www.kino-teatr.ru/kino/movie/sov/1353/annot/ написано, что премьера фильма состоялась в июле 1992 года. Но мне почему-то кажется, что я успел посмотреть его ещё до прекращения существования СССР, то есть до декабря 1991 года. Вопрос к участникам форума: когда всё-таки, по-Вашему, состоялась премьера фильма "Гений"?
[Профиль]  [ЛС] 

Valentin2010

Корсар

Пост 31-Мар-2013 22:22 (спустя 6 дней)

[Q] 

Фильм можно смотреть бесконечно. Огромное спасибо!

_________________
"Никогда не мстите подлым людям. Просто станьте счастливыми. И они этого не переживут... " – Юрий Никулин
[Профиль]  [ЛС] 

ZZEMM

Юнга

Пост 05-Апр-2013 17:28 (спустя 4 дня)

[Q] 

Бесподобный фильм. Пересматриваю многократно и балдею.

_________________
[Профиль]  [ЛС] 

Nemetz

Корсар

Пост 11-Апр-2013 06:15 (спустя 5 дней)

[Q] 

Фильм 90х )) ностальжи все равно по тому времени.. Хоть и ребенком был считай.
[Профиль]  [ЛС] 

Aurums

Корсар

Пост 14-Апр-2013 21:55 (спустя 3 дня)

[Q] 

Пересмотрел с удовольствием, старый, добрый, русский фильм))
[Профиль]  [ЛС] 

Dominik

Морской Волк

68

Пост 25-Сен-2014 15:52 (спустя 1 год 5 месяцев)

[Q] 

КлаССика!!!!!! Супер!
Спасибо!!!

_________________
Раньше удивляло хамство, теперь удивляет вежливость!
[Профиль]  [ЛС] 

Alexe10

Гроза морей

36

Пост 23-Окт-2014 07:15 (спустя 27 дней)

[Q] 

Спасибо!!! Автору респект!!!
[Профиль]  [ЛС] 
Показать сообщения:    
Ответить на тему

Текущее время: Сегодня 18:40

Часовой пояс: GMT + 4



Вы не можете начинать темы
Вы не можете отвечать на сообщения
Вы не можете редактировать свои сообщения
Вы не можете удалять свои сообщения
Вы не можете голосовать в опросах
Вы не можете прикреплять файлы к сообщениям
Вы не можете скачивать файлы

▼ Вниз