ML
     
  Уважаемый Гость!
Вы можете поддержать проект и зарегистрироваться у наших партнеров - онлайн-стратегия MyLands. При регистрации в игре Вы получите код, который сможете активировать после регистрации на pirat.ca и получить 1000 дублонов.

Ваш код:
ec3b26eefbcdc72e08e9fd33c6846bb2ca10f8b1
 
     

Неваляшка (Роман Качанов) [2007 г., комедия, спорт, DVDRip]

Ответить на тему
 
Автор
Сообщение

Пост 02-Апр-2012 12:07

[Q] 

Амангельды

Неваляшка Жанр: Комедия, спорт
Дата выпуска: 26 апреля 2007
Продолжительность: 01:30:45
Субтитры: Нет
Режиссер: Роман Качанов.
Оператор: Максим Трапо.
Сценарий: Роман Качанов, Григорий Константинопольский, Максим Курочкин, Ульяна Шилкина.
В ролях: Павел Деревянко, Сергей Маковецкий, Елена Николаева, Алексей Панин, Артемий Троицкий, Ноэль Андерсон, Линда Нигматуллина, Андрей Васильев, Виктория Кастро, Виталий Качановский.
Описание: «НЕВАЛЯШКА» - прозвище молодого боксера, выступающего в легком весе. Среди своих соперников он выделяется невероятной живостью и фантастической волей к победе. Никому из его соперников не удавалось отправить его в нокаут, он всегда поднимался на ноги (отсюда и прозвище). Но самому Неваляшке скучно соревноваться с намного уступающими ему соперниками. Он мечтает о большем!
Однажды в новостях наш герой видит телерепортаж о знаменитом американском супертяжеловесе, чемпионе мира по прозвищу «Пила», и его подружке -экзотической красавице из «Плейбоя» Кэтрин Джойс. Конечно же, Неваляшка влюбляется в роскошную чернокожую красотку, и его смутная неудовлетворенность своей жизнью превращается в ясную цель - он должен победить чемпиона-супертяжеловеса и завоевать девушку своей мечты. Неваляшка всеми правдами и неправдами пробивается в тяжеловесы. В этом ему помогает Семеныч, бывший чемпион в среднем весе, ныне обитающий в подвале и подрабатывающий Дедом Морозом. Семеныч становится другом Неваляшки и начинает тренировать его, готовя к боям в тяжелом весе.


Качество видео: DVDRip
Формат видео: AVI
Видео: 704x384 (1.83:1), 25 fps, XviD build 72 ~1841 kbps avg, 0.27 bit/pixel
Аудио: 48 kHz, AC3 Dolby Digital, 3/2 (L,C,R,l,r) + LFE ch, ~448 kbps
Формат : AVI
Формат/Информация : Audio Video Interleave
Размер файла : 1,46 Гбайт
Продолжительность : 1 ч. 30 м.
Общий поток : 2298 Кбит/сек
Название фильма : Неваляшка [2007]
Режиссёр : Юpист
Жанр : Kомедия, спорт
Программа кодирования : VirtualDubMod 1.5.10.3 | www.virtualdub-fr.org || (build 2550/release)
Библиотека кодирования : VirtualDubMod build 2550/release
Правообладатель : RG "All films" [pirat.ca]
Видео
Идентификатор : 0
Формат : MPEG-4 Visual
Профиль формата : Advanced [email protected]
Параметр BVOP формата : 1
Параметр QPel формата : Нет
Параметр GMC формата : Без точки перехода
Параметр матрицы формата : Выборочная
Идентификатор кодека : XVID
Идентификатор кодека/Подсказка : XviD
Продолжительность : 1 ч. 30 м.
Битрейт : 1841 Кбит/сек
Ширина : 704 пикс.
Высота : 384 пикс.
Соотношение сторон : 16:9
Частота кадров : 25,000 кадр/сек
Цветовое пространство : YUV
Подвыборка цветности : 4:2:0
Битовая глубина : 8 бит
Тип развёртки : Прогрессивная
Метод сжатия : С потерями
Бит/(Пиксели*Кадры) : 0.272
Размер потока : 1,17 Гбайт (80%)
Библиотека кодирования : XviD 72
Аудио
Идентификатор : 1
Формат : AC-3
Формат/Информация : Audio Coding 3
Расширение режима : CM (complete main)
Идентификатор кодека : 2000
Продолжительность : 1 ч. 30 м.
Вид битрейта : Постоянный
Битрейт : 448 Кбит/сек
Канал(ы) : 6 канала(ов)
Расположение каналов : Front: L C R, Side: L R, LFE
Частота : 48,0 КГц
Битовая глубина : 16 бит
Метод сжатия : С потерями
Размер потока : 291 Мбайт (19%)
Выравнивание : Разделение по промежуткам
Продолжительность промежутка : 40 мс. (1,00 видеокадр)
Время предзагрузки промежутка : 500 ms
Внимание! Ненормативная лексика
Download / Скачать

Хотите скачать бесплатно? Зарегистрируйтесь на сайте (ссылка на регистрацию). Pirat.ca - самый быстрый торрент трекер в рунете!

Как скачивать  ·   Что такое торрент  ·   Рейтинг и ограничения

Пост 02-Апр-2012 12:10 (спустя 3 минуты)

Топик был перенесен из форума Наше Кино в форум Российские фильмы

genkasper
 

Амангельды ®

35486

Пост 08-Май-2012 03:18 (спустя 1 месяц 5 дней)

[Q] 

Как девка вынесла ненормативную лексику - убило напрочь...

_________________

Товарищ, верь, пройдет она,
Так называемая гласность.
И вот тогда госбезопасность
Припомнит ваши имена
Раздачи от Амангельды - ТЫНЦ
[Профиль]  [ЛС] 

hohol541

Корсар

Пост 29-Дек-2012 10:58 (спустя 7 месяцев 21 день)

[Q] 

А потом лексику выправили,а жаль.Пикантность пропала.Прикольный фильм.
[Профиль]  [ЛС] 

Wolf111

57054

Пост 14-Янв-2013 18:02 (спустя 16 дней)

[Q] 

Помогу с раздачей
[Профиль]  [ЛС] 

UncleFather

Легенда

Пост 23-Мар-2013 16:09 (спустя 2 месяца 8 дней)

[Q] 


_________________
Одни боялись Пью, другие - Билли Бонса, а меня... меня боялся сам Флинт
[Профиль]  [ЛС] 

Амангельды ®

35486

Пост 23-Мар-2013 17:43 (спустя 1 час 33 минуты)

[Q] 

292189А потом лексику выправили,а жаль.Пикантность пропала.Прикольный фильм.
Ну не знаю, тут с матюками все в порядке - даже не пипикает, как есть произносят... ah

_________________

Товарищ, верь, пройдет она,
Так называемая гласность.
И вот тогда госбезопасность
Припомнит ваши имена
Раздачи от Амангельды - ТЫНЦ
[Профиль]  [ЛС] 

казаев

Морской Волк

Пост 27-Мар-2013 01:19 (спустя 3 дня)

[Q] 

[Профиль]  [ЛС] 

usya5

Морской Волк

Пост 28-Окт-2014 21:16 (спустя 1 год 7 месяцев)

[Q] 

что-то посмотрел рекламу и понял что этот фильм почему-то не смотрел... восполним культурные недостатки и упущения Автору респект!!!
[Профиль]  [ЛС] 

Амангельды ®

35486

Пост 29-Окт-2014 09:47 (спустя 12 часов)

[Q] 

usya5, кино не претендует на шедевральность, но оригинальностью полно...

_________________

Товарищ, верь, пройдет она,
Так называемая гласность.
И вот тогда госбезопасность
Припомнит ваши имена
Раздачи от Амангельды - ТЫНЦ
[Профиль]  [ЛС] 

Goodwin277

Корсар

Пост 21-Янв-2015 20:29 (спустя 2 месяца 23 дня)

[Q] 

Спасибо за прекрасную русскую комедию Спасибо!!! Супер! с матами
[Профиль]  [ЛС] 

Vetusto

Морской Волк

Пост 29-Окт-2016 23:41 (спустя 1 год 9 месяцев)

[Q] 

Друзья, встаньте на раздачу!

_________________
Не мы такие, жизнь такая...
[Профиль]  [ЛС] 
Показать сообщения:    
Ответить на тему

Текущее время: Сегодня 03:50

Часовой пояс: GMT + 4



Вы не можете начинать темы
Вы не можете отвечать на сообщения
Вы не можете редактировать свои сообщения
Вы не можете удалять свои сообщения
Вы не можете голосовать в опросах
Вы не можете прикреплять файлы к сообщениям
Вы не можете скачивать файлы

▼ Вниз