ML
     
  Уважаемый Гость!
Вы можете поддержать проект и зарегистрироваться у наших партнеров - онлайн-стратегия MyLands. При регистрации в игре Вы получите код, который сможете активировать после регистрации на pirat.ca и получить 1000 дублонов.

Ваш код:
2fd4e750dd89cae3a36ea360f2b345ccfeb562d3
 
     

Ржевский против Наполеона (Марюс Вайсберг) [2012 г., комедия, BDRip-AVC] (Лицензия) [internal release]

Ответить на тему
 
Автор
Сообщение

Пост 02-Апр-2012 22:53

[Q] 

zyyx

--Ржевский против Наполеона
«В старом добром IIIД»
-- Год выпуска: 2012
Мировая премьера: 18 января 2012
Российская премьера: 25 января 2012, «Централ Партнершип»
Дата выхода DVD: 23 февраля 2012, «Новый Диск»
Дата выхода Blu-Ray: 8 марта 2012, «Новый Диск»
Производство: Россия, Украина
Жанр: комедия
Продолжительность: 01:23:09
Перевод: Не требуется [Лицензия]
Режиссер: Марюс Вайсберг
В ролях: Павел Деревянко, Владимир Зеленский, Светлана Ходченкова, Михаил Ефремов, Марат Башаров, Евгений Кошевой, Жан-Клод Ван Дамм, Анна Семенович, Анфиса Чехова, Михаил Галустян
Описание: Чтобы развеять скуку, Наполеон Бонапарт затеял мировую войну. Не пропуская ни одной юбки, он оказывается со своей армией у ворот Первопрестольной. Русские полководцы решают внедрить к нему неприступную красавицу, la femme fatal, чтобы отвлечь узурпатора от захватнической деятельности. Только какая настоящая женщина устоит перед обаянием этого великого бабника? Ненастоящая!!! В смысле — переодетый мужчина! И такой мужчина есть — поручик Ржевский…
Источник/Качество: BDRip-AVC | Сэмпл
Формат: MKV
Видео кодек: H.264
Аудио кодек: AC3
Видео: 1040x432, 23.976 fps, 2067 Kbps, 0.192 bit/pixel
Аудио: 48.0 KHz, 6 ch, 448 Kbps
General
Unique ID : 195538804127574673283462057538379346633 (0x931B67607A85B6EA87532795751072C9)
Complete name : K:\zyyx\Rzhevskij.protiv.Napoleona.2012.BDRip-AVC.zyyx.mkv
Format : Matroska
Format version : Version 2
File size : 1.46 GiB
Duration : 1h 23mn
Overall bit rate : 2 516 Kbps
Movie name : Ржевский против Наполеона 2012 - Release for zyyx (pirat.ca)
Encoded date : UTC 2012-04-03 12:01:59
Writing application : mkvmerge v4.9.1 ('Ich will') сборка от Jul 11 2011 23:53:15
Writing library : libebml v1.2.1 + libmatroska v1.1.1
Video
ID : 1
Format : AVC
Format/Info : Advanced Video Codec
Format profile : [email protected]
Format settings, CABAC : Yes
Format settings, ReFrames : 16 frames
Muxing mode : Header stripping
Codec ID : V_MPEG4/ISO/AVC
Duration : 1h 23mn
Bit rate : 2 067 Kbps
Width : 1 040 pixels
Height : 432 pixels
Display aspect ratio : 2.40:1
Frame rate : 23.976 fps
Color space : YUV
Chroma subsampling : 4:2:0
Bit depth : 8 bits
Scan type : Progressive
Bits/(Pixel*Frame) : 0.192
Stream size : 1.17 GiB (80%)
Writing library : x264 core 116 r2044 392e762
Encoding settings : cabac=1 / ref=16 / deblock=1:0:0 / analyse=0x3:0x113 / me=hex / subme=9 / psy=1 / psy_rd=1.00:0.00 / mixed_ref=1 / me_range=16 / chroma_me=1 / trellis=1 / 8x8dct=1 / cqm=0 / deadzone=21,11 / fast_pskip=1 / chroma_qp_offset=-2 / threads=6 / sliced_threads=0 / nr=0 / decimate=1 / interlaced=0 / bluray_compat=0 / constrained_intra=0 / bframes=8 / b_pyramid=2 / b_adapt=1 / b_bias=0 / direct=1 / weightb=1 / open_gop=0 / weightp=2 / keyint=250 / keyint_min=23 / scenecut=40 / intra_refresh=0 / rc_lookahead=40 / rc=2pass / mbtree=1 / bitrate=2067 / ratetol=1.0 / qcomp=0.60 / qpmin=0 / qpmax=69 / qpstep=4 / cplxblur=20.0 / qblur=0.5 / ip_ratio=1.40 / aq=1:1.00
Default : Yes
Forced : No
Audio
ID : 2
Format : AC-3
Format/Info : Audio Coding 3
Mode extension : CM (complete main)
Muxing mode : Header stripping
Codec ID : A_AC3
Duration : 1h 23mn
Bit rate mode : Constant
Bit rate : 448 Kbps
Channel(s) : 6 channels
Channel positions : Front: L C R, Side: L R, LFE
Sampling rate : 48.0 KHz
Bit depth : 16 bits
Compression mode : Lossy
Stream size : 266 MiB (18%)
Default : Yes
Forced : No





Download / Скачать

Хотите скачать бесплатно? Зарегистрируйтесь на сайте (ссылка на регистрацию). Pirat.ca - самый быстрый торрент трекер в рунете!

Как скачивать  ·   Что такое торрент  ·   Рейтинг и ограничения

Пост 03-Апр-2012 17:38 (спустя 18 часов)

Топик был перенесен из форума Наше Кино в форум Новинки (HD|DVD|BD|TV|SAT|PDTV| - Rips)

genkasper
 

Olegkrv

Шкипер

Пост 03-Апр-2012 18:11 (спустя 19 часов)

[Q] 

Поглядим
[Профиль]  [ЛС] 

dron161rus

Шкипер

Пост 03-Апр-2012 18:21 (спустя 10 минут)

[Q] 

Посмотрим, спасибо!
[Профиль]  [ЛС] 

xprotm

Корсар

5

Пост 03-Апр-2012 20:14 (спустя 1 час 53 минуты)

[Q] 

так себе
[Профиль]  [ЛС] 

Амангельды

35486

Пост 03-Апр-2012 20:18 (спустя 3 минуты)

[Q] 

А я поржал от души и в голос...
А как поручику волосья на бикинях драли, таки до слез поросёнки довели старого человека...
На удивление легкое и ненапряжное кино...

_________________

Товарищ, верь, пройдет она,
Так называемая гласность.
И вот тогда госбезопасность
Припомнит ваши имена
Раздачи от Амангельды - ТЫНЦ
[Профиль]  [ЛС] 

agel

Лоцман

Пост 08-Апр-2012 09:46 (спустя 4 дня)

[Q] 

[Профиль]  [ЛС] 

Шервик

Лоцман

Пост 08-Апр-2012 12:45 (спустя 2 часа 59 минут)

[Q] 

дермовое кино .зря потраченые деньги
[Профиль]  [ЛС] 

Vinales

Шкипер

Пост 08-Апр-2012 20:45 (спустя 8 часов)

[Q] 

Посмотрим, заценим.
[Профиль]  [ЛС] 

Дон Кихот

Корсар

Пост 13-Апр-2012 20:37 (спустя 4 дня)

[Q] 

Да уж ну и хрень.
[Профиль]  [ЛС] 

Пост 26-Апр-2012 15:44 (спустя 12 дней)

Топик был перенесен из форума Новинки (HD|DVD|BD|TV|SAT|PDTV| - Rips) в форум Российские фильмы

ara1205
 
Показать сообщения:    
Ответить на тему

Текущее время: Сегодня 14:14

Часовой пояс: GMT + 4



Вы не можете начинать темы
Вы не можете отвечать на сообщения
Вы не можете редактировать свои сообщения
Вы не можете удалять свои сообщения
Вы не можете голосовать в опросах
Вы не можете прикреплять файлы к сообщениям
Вы не можете скачивать файлы

▼ Вниз