ML
     
  Уважаемый Гость!
Вы можете поддержать проект и зарегистрироваться у наших партнеров - онлайн-стратегия MyLands. При регистрации в игре Вы получите код, который сможете активировать после регистрации на pirat.ca и получить 1000 дублонов.

Ваш код:
bc31d8aef74c92e19ad67e34a8fa63c3b9b812fb
 
     

Стэп бай стэп (Игорь Коробейников) [2011 г., комедия, DVDRip][Лицензия]

Ответить на тему
 
Автор
Сообщение

Пост 04-Апр-2012 07:33

[Q] 

Vlad.84

Штурман

Стэп бай стэп
-Год выпуска: 2011
Страна:Россия
Премьера (РФ): 31 марта 2011
Релиз на DVD: 1 марта 2012, «Ruscico»
Жанр: комедия
Продолжительность: 01:41:10
Режиссер: Игорь Коробейников
В ролях: Анна Дарк, Максим Дрозд, Владимир Скворцов, Андрей Александрин, Эвелина Блёданс, Николай Бурлак, Юлия Беретта, Сергей Зарубин, Юрий Лагута, Олег Леушин
Описание: Лера Ласковая, преподаватель школы искусств, отстаивая интересы студентов и коллег, вступает в неравный бой с Артемом Рудаковым, олигархом, привыкшим все подчинять своей воле и желанию. Молодая женщина, несмотря на угрозы и безнадежность ситуации, верит в справедливость и настоящие чувства. Ей удается объединить вокруг себя единомышленников и дать отпор «сильным мира сего».
Смешные и нелепые попытки Леры и её команды спасти Школу, непосредственность и наивность, вызывают у Артема Рудакова недоумение, а затем неподдельный интерес. Встретившись с Лерой, он понимает, что это та настоящая и единственная любовь, к которой он стремился всю жизнь, идя навстречу к ней шаг за шагом.- -Источник/Качество: DVDRip
Формат: AVI
Видео кодек: XviD
Аудио кодек: AC3
Видео: 720x400, 25.000 fps, XviD, 1477 Kbps
Аудио: AC3, 448 Kbps, 48.0 KHz, 6 ch
General
Complete name : D:\Видео\Step.by.step_2011.DVDRip.avi
Format : AVI
Format/Info : Audio Video Interleave
File size : 1.37 GiB
Duration : 1h 41mn
Overall bit rate : 1 935 Kbps
Movie name : Step.by.step.2011.O.DVDRip
Genre : Comedy
Writing application : VirtualDubMod 1.5.10.2 (build 2540/release)
Original source form/Name : Movie
Video
ID : 0
Format : MPEG-4 Visual
Format profile : Advanced [email protected]
Format settings, BVOP : Yes
Format settings, QPel : No
Format settings, GMC : No warppoints
Format settings, Matrix : Custom
Codec ID : XVID
Codec ID/Hint : XviD
Duration : 1h 41mn
Bit rate : 1 477 Kbps
Width : 720 pixels
Height : 400 pixels
Display aspect ratio : 16:9
Frame rate : 25.000 fps
Color space : YUV
Chroma subsampling : 4:2:0
Bit depth : 8 bits
Scan type : Progressive
Bits/(Pixel*Frame) : 0.205
Stream size : 1.04 GiB (76%)
Writing library : XviD 1.2.0.dev47 (UTC 2006-11-01)
Audio
ID : 1
Format : AC-3
Format/Info : Audio Coding 3
Mode extension : CM (complete main)
Codec ID : 2000
Duration : 1h 41mn
Bit rate mode : Constant
Bit rate : 448 Kbps
Channel(s) : 6 channels
Channel positions : Front: L C R, Side: L R, LFE
Sampling rate : 48.0 KHz
Bit depth : 16 bits
Stream size : 324 MiB (23%)
Alignment : Split accross interleaves
Interleave, duration : 40 ms (1.00 video frame)
Interleave, preload duration : 500 ms
Download / Скачать

Хотите скачать бесплатно? Зарегистрируйтесь на сайте (ссылка на регистрацию). Pirat.ca - самый быстрый торрент трекер в рунете!

Как скачивать  ·   Что такое торрент  ·   Рейтинг и ограничения

A.Net

Корсар

Пост 04-Апр-2012 09:11 (спустя 1 час 37 минут)

[Q] 

Спасибо
[Профиль]  [ЛС] 

Decter

Корсар

Пост 04-Апр-2012 10:14 (спустя 1 час 2 минуты)

[Q] 

Судя по оценкам Кинопоиска очередной отечественный "шедевр". Отпишитесь кто смотрел?
Раздающему в любом случае спасибо!!!
[Профиль]  [ЛС] 

Пост 04-Апр-2012 12:26 (спустя 2 часа 12 минут)

Топик был перенесен из форума Российские фильмы в форум Новинки (HD|DVD|BD|TV|SAT|PDTV| - Rips)

genkasper
 

Selector

Шкипер

Пост 04-Апр-2012 13:39 (спустя 3 часа)

[Q] 

Спасибо
[Профиль]  [ЛС] 

Engener

Морской Волк

Пост 04-Апр-2012 18:39 (спустя 4 часа)

[Q] 

На скринах идиотические лицы

_________________
Остановите Землю, я сойду!
[Профиль]  [ЛС] 

savatey

Корсар

Пост 04-Апр-2012 19:42 (спустя 1 час 2 минуты)

[Q] 

Олигарх , школа искусств , актеры с непонятными фамилиями , кто-нибудь смотрел ?

_________________
[Профиль]  [ЛС] 

Колян-Вован

Корсар

Пост 05-Апр-2012 01:15 (спустя 5 часов)

[Q] 

С аной дарк - могут люди не так понять;)))))

_________________
Читайте классиков...
[Профиль]  [ЛС] 

Valf66

Морской Волк

Пост 05-Апр-2012 17:30 (спустя 16 часов)

[Q] 

Опять про олигархов...
[Профиль]  [ЛС] 

Ryddik

Корсар

5

Пост 05-Апр-2012 19:49 (спустя 2 часа 18 минут)

[Q] 

[Профиль]  [ЛС] 

citrus

Морской Волк

Пост 13-Апр-2012 13:10 (спустя 7 дней)

[Q] 

[Профиль]  [ЛС] 

UncleTim

Корсар

Пост 18-Апр-2012 12:03 (спустя 4 дня)

[Q] 

[Профиль]  [ЛС] 

Voland57

Корсар

Пост 03-Май-2012 20:00 (спустя 15 дней)

[Q] 

Спасибо!!!
[Профиль]  [ЛС] 

Пост 05-Май-2012 17:14 (спустя 1 день 21 час)

Топик был перенесен из форума Новинки (HD|DVD|BD|TV|SAT|PDTV| - Rips) в форум Российские фильмы

erchine
 
Показать сообщения:    
Ответить на тему

Текущее время: Сегодня 12:03

Часовой пояс: GMT + 4



Вы не можете начинать темы
Вы не можете отвечать на сообщения
Вы не можете редактировать свои сообщения
Вы не можете удалять свои сообщения
Вы не можете голосовать в опросах
Вы не можете прикреплять файлы к сообщениям
Вы не можете скачивать файлы

▼ Вниз