ML
     
  Уважаемый Гость!
Вы можете поддержать проект и зарегистрироваться у наших партнеров - онлайн-стратегия MyLands. При регистрации в игре Вы получите код, который сможете активировать после регистрации на pirat.ca и получить 1000 дублонов.

Ваш код:
062e2babcc491faeb40d496cf9a498ac3df6cdd0
 
     

Последний герой (Виктор Татарский) [2012, боевик, криминал, драма, SATRip]

Ответить на тему
 
Автор
Сообщение

Пост 06-Апр-2012 09:59

[Q] 

ara1205

Последний герой- -Страна: Россия
Жанр: боевик, криминал, драма
Год выпуска: 2012
Российская премьера: 30 марта 2012
Продолжительность: 01:23:39-Режиссёр: Виктор Татарский (II)-В ролях: Михаил Полосухин, Денис Синявский, Людмила Курепова, Геннадий Смирнов-Описание: Когда-то Андрей служил в "горячей точке" и однажды спас жизнь сослуживцу. Сегодня он мирно живет в Петербурге, работает врачом, живет с замечательной женой Катей, которая ждет ребенка. Но однажды в дом приходит беда: Андрея сильно избивают, и через несколько дней он умирает в больнице. Полиция не торопится разбираться в обстоятельствах дела, а Кате, которая пытается добиться справедливости, начинают угрожать расправой. Неожиданно на пороге ее дома появляется Виктор - тот самый солдат, которого спас Андрей...- / -Качество видео: SATRip
Формат видео: AVI
Видео кодек: XviD
Аудио кодек: MP3
Видео: 720x392 (1.84:1), 25 fps, XviD MPEG-4 ~1993 kbps avg, 0.28 bit/pixel
Аудио: 48 kHz, MPEG Layer 3, 2 ch, ~128.00 kbps-
General
Complete name : D:\Torrents\Posledniy.geroy.2012.SATRip.RiperAM.avi
Format : AVI
Format/Info : Audio Video Interleave
File size : 1.25 GiB
Duration : 1h 23mn
Overall bit rate : 2 132 Kbps
Writing application : VirtualDubMod 1.5.10.2 (build 2540/release)
Writing library : VirtualDub build 29808/release
Video #0
ID : 0
Format : MPEG-4 Visual
Format profile : [email protected]
Format settings, BVOP : Yes
Format settings, QPel : No
Format settings, GMC : No warppoints
Format settings, Matrix : Default (H.263)
Muxing mode : Packed bitstream
Codec ID : XVID
Codec ID/Hint : XviD
Duration : 1h 23mn
Bit rate : 1 994 Kbps
Width : 720 pixels
Height : 392 pixels
Display aspect ratio : 16:9
Frame rate : 25.000 fps
Resolution : 24 bits
Colorimetry : 4:2:0
Scan type : Progressive
Bits/(Pixel*Frame) : 0.283
Stream size : 1.17 GiB (94%)
Writing library : XviD 63
Audio #1
ID : 1
Format : MPEG Audio
Format version : Version 1
Format profile : Layer 3
Codec ID : 55
Codec ID/Hint : MP3
Duration : 1h 23mn
Bit rate mode : Constant
Bit rate : 128 Kbps
Channel(s) : 2 channels
Sampling rate : 48.0 KHz
Resolution : 16 bits
Stream size : 76.6 MiB (6%)
Alignment : Aligned on interleaves
Interleave, duration : 40 ms (1.00 video frame)
Interleave, preload duration : 504 ms
-
-
-
Download / Скачать

Хотите скачать бесплатно? Зарегистрируйтесь на сайте (ссылка на регистрацию). Pirat.ca - самый быстрый торрент трекер в рунете!

Как скачивать  ·   Что такое торрент  ·   Рейтинг и ограничения

Пост 06-Апр-2012 11:08 (спустя 1 час 9 минут)

Топик был перенесен из форума Наше Кино в форум Новинки (HD|DVD|BD|TV|SAT|PDTV| - Rips)

Linnan
 

Decter

Корсар

Пост 06-Апр-2012 13:04 (спустя 3 часа)

[Q] 

Спасибо, скачаю..
[Профиль]  [ЛС] 

dimonpa

Гроза морей

Пост 06-Апр-2012 13:53 (спустя 49 минут)

[Q] 

[Профиль]  [ЛС] 

got70

Легенда

752

Пост 06-Апр-2012 15:58 (спустя 2 часа 4 минуты)

[Q] 


_________________
Добро непременно победит зло!Непременно...Затем поставит на колени,и зверски УБЬЁТ!
[Профиль]  [ЛС] 

maglot129

Корсар

Пост 06-Апр-2012 17:14 (спустя 1 час 15 минут)

[Q] 

[Профиль]  [ЛС] 

dron161rus

Шкипер

Пост 06-Апр-2012 20:23 (спустя 3 часа)

[Q] 

спасибо, посмотрю!
[Профиль]  [ЛС] 

slaytar

Штурман

Пост 07-Апр-2012 12:17 (спустя 15 часов)

[Q] 

Как фильм то?
[Профиль]  [ЛС] 

Valf66

Морской Волк

Пост 07-Апр-2012 20:30 (спустя 8 часов)

[Q] 

[Профиль]  [ЛС] 

UncleTim

Корсар

Пост 18-Апр-2012 11:57 (спустя 10 дней)

[Q] 

[Профиль]  [ЛС] 

Voland57

Корсар

Пост 03-Май-2012 20:01 (спустя 15 дней)

[Q] 

Спасибо!
[Профиль]  [ЛС] 

gr71silver

Корсар

Пост 03-Май-2012 20:12 (спустя 11 минут)

[Q] 

Спасибо!
[Профиль]  [ЛС] 

chibis

Шкипер

Пост 03-Май-2012 21:06 (спустя 53 минуты)

[Q] 

в конце сказочно подрался-герррой
[Профиль]  [ЛС] 

Пост 18-Май-2012 08:04 (спустя 14 дней)

Топик был перенесен из форума Новинки (HD|DVD|BD|TV|SAT|PDTV| - Rips) в форум Российские фильмы

ara1205
 

ss80

Флибустьер

36

Пост 01-Июл-2012 19:04 (спустя 1 месяц 27 дней)

[Q] 

[Профиль]  [ЛС] 

Snobel

Штурман

Пост 10-Сен-2012 21:52 (спустя 2 месяца 9 дней)

[Q] 

[Профиль]  [ЛС] 

Snobel

Штурман

Пост 25-Сен-2012 18:41 (спустя 14 дней)

[Q] 

[Профиль]  [ЛС] 

FeudorM

Корсар

Пост 01-Окт-2012 09:17 (спустя 5 дней)

[Q] 

[Профиль]  [ЛС] 

Simsim

Морской Волк

Пост 02-Ноя-2012 12:06 (спустя 1 месяц 1 день)

[Q] 

спасибо!
[Профиль]  [ЛС] 

alextaganovich

Морской Волк

Пост 11-Ноя-2012 08:52 (спустя 8 дней)

[Q] 

[Профиль]  [ЛС] 

Clean_OK

Пост 10-Янв-2016 18:57 (спустя 3 года 1 месяц)

[Q] 

Спасибо!!!

_________________
[Профиль]  [ЛС] 
Показать сообщения:    
Ответить на тему

Текущее время: Сегодня 17:41

Часовой пояс: GMT + 4



Вы не можете начинать темы
Вы не можете отвечать на сообщения
Вы не можете редактировать свои сообщения
Вы не можете удалять свои сообщения
Вы не можете голосовать в опросах
Вы не можете прикреплять файлы к сообщениям
Вы не можете скачивать файлы

▼ Вниз