ML
     
  Уважаемый Гость!
Вы можете поддержать проект и зарегистрироваться у наших партнеров - онлайн-стратегия MyLands. При регистрации в игре Вы получите код, который сможете активировать после регистрации на pirat.ca и получить 1000 дублонов.

Ваш код:
ef8b3e8cd07bec918273586d22e5aaf18e0ae925
 
     

Южные ночи (Валентина Власова) [2012 г., Мелодрама, Комедия, SatRip]

Ответить на тему
 
Автор
Сообщение

Пост 07-Апр-2012 10:17

[Q] 

ara1205

Южные ночи- -Год выпуска: 2012
Премьера в России: 1 апреля 2012
Страна: Россия
Жанр: Мелодрама, Комедия
Продолжительность: 01:37:59
Перевод: Не требуется-Режиссер: Валентина Власова-В ролях: Ксения Роменкова, Артем Ткаченко, Алексей Колубков, Екатерина Сахарова, Артем Артемьев
- -Красавица Юлия целиком сосредоточена на карьере. Ради очередного повышения она берется разрешить сложную задачу - выкупить виноградник. Помогает Юле ее жених Кирилл, однако владелец виноградника Виктор вовсе не намерен его продавать. И вот в один далеко не прекрасный день Юлия оказывается посреди южной приморской глуши, на шпильках и в деловом костюме. Но и это еще полбеды. Хозяин виноградника решает испытать на прочность городскую красотку и, притворившись "тупым мужланом", подвергает ее изощренным испытаниям.- -Качество: SatRip
Формат: AVI
Видео кодек: XviD
Аудио кодек: MP3
Видео: 704х384, 24 fps, ~999 Kbit/s
Аудио: 48000 Hz, 2 канала, 128 kbit/s
- -
-
General
Complete name : C:\Users\Юличка\Desktop\Uzhnie.nochi.2011.SATRip.avi
Format : AVI
Format/Info : Audio Video Interleave
File size : 709 MiB
Duration : 1h 37mn
Overall bit rate : 1 011 Kbps
Writing application : Lavf52.93.0
Video
ID : 0
Format : xvid
Codec ID : xvid
Duration : 1h 37mn
Bit rate : 871 Kbps
Width : 704 pixels
Height : 384 pixels
Display aspect ratio : 16:9
Frame rate : 24.000 fps
Bits/(Pixel*Frame) : 0.134
Stream size : 610 MiB (86%)
Audio
ID : 1
Format : MPEG Audio
Format version : Version 1
Format profile : Layer 3
Mode : Joint stereo
Mode extension : MS Stereo
Codec ID : 55
Codec ID/Hint : MP3
Duration : 1h 37mn
Bit rate mode : Constant
Bit rate : 128 Kbps
Channel(s) : 2 channels
Sampling rate : 48.0 KHz
Compression mode : Lossy
Stream size : 89.7 MiB (13%)
Alignment : Aligned on interleaves
Interleave, duration : 24 ms (0.58 video frame)
Interleave, preload duration : 48 ms
-
Download / Скачать

Хотите скачать бесплатно? Зарегистрируйтесь на сайте (ссылка на регистрацию). Pirat.ca - самый быстрый торрент трекер в рунете!

Как скачивать  ·   Что такое торрент  ·   Рейтинг и ограничения

Пост 07-Апр-2012 11:05 (спустя 48 минут)

Топик был перенесен из форума Наше Кино в форум Новинки (HD|DVD|BD|TV|SAT|PDTV| - Rips)

genkasper
 

slaytar

Штурман

Пост 07-Апр-2012 12:14 (спустя 1 час 57 минут)

[Q] 

Российский вариант "Укрощение строптивой" что-ль?
[Профиль]  [ЛС] 

ig-efrem

Штурман

Пост 07-Апр-2012 15:12 (спустя 2 часа 57 минут)

[Q] 

класс
[Профиль]  [ЛС] 

Selector

Шкипер

Пост 08-Апр-2012 01:32 (спустя 10 часов)

[Q] 

[Профиль]  [ЛС] 

U-858

Флибустьер

Пост 09-Апр-2012 19:19 (спустя 1 день 17 часов)

[Q] 

[Профиль]  [ЛС] 

Пост 08-Май-2012 10:58 (спустя 28 дней)

Топик был перенесен из форума Новинки (HD|DVD|BD|TV|SAT|PDTV| - Rips) в форум Российские фильмы

ara1205
 

dedmazai55

Морской Волк

Пост 05-Июл-2012 21:30 (спустя 2 месяца 26 дней)

[Q] 

Глянем. Если это
Российский вариант "Укрощение строптивой" что-ль?
,то даже интересно что получилось bp
[Профиль]  [ЛС] 

vslav

Штурман

Пост 30-Июн-2013 09:38 (спустя 11 месяцев 24 дня)

[Q] 

может у кого есть DVD выложите!
[Профиль]  [ЛС] 

CHARLI2236

1098

Пост 25-Июл-2013 19:16 (спустя 25 дней)

[Q] 

1

_________________
[Профиль]  [ЛС] 

АлександрBoG

Штурман

Пост 02-Фев-2014 23:40 (спустя 6 месяцев 8 дней)

[Q] 

Хороший фильм. Супер!
[Профиль]  [ЛС] 
Показать сообщения:    
Ответить на тему

Текущее время: Сегодня 18:38

Часовой пояс: GMT + 4



Вы не можете начинать темы
Вы не можете отвечать на сообщения
Вы не можете редактировать свои сообщения
Вы не можете удалять свои сообщения
Вы не можете голосовать в опросах
Вы не можете прикреплять файлы к сообщениям
Вы не можете скачивать файлы

▼ Вниз