ML
     
  Уважаемый Гость!
Вы можете поддержать проект и зарегистрироваться у наших партнеров - онлайн-стратегия MyLands. При регистрации в игре Вы получите код, который сможете активировать после регистрации на pirat.ca и получить 1000 дублонов.

Ваш код:
59354507ba913a0948d1a8f2e30f2e04c4cd7b9b
 
     

Мама не горюй 2 (Максим Пежемский) [2005 г., комедия, криминал, DVDRip]

Ответить на тему
 
Автор
Сообщение

Пост 08-Апр-2012 18:21

[Q] 

kufre

Корсар

Мама не горюй 2
Год выпуска: 2005
Жанр: комедия, криминал
Продолжительность: 01:42:15
Режиссер: Максим Пежемский
В ролях: Гоша Куценко, Евгений Сидихин , Александр Баширов, Андрей Панин, Иван Бортник, Сергей Колтаков, Николай Чиндяйкин, Нина Русланова, Михаил Ефремов, Федор Бондарчук
Описание: События картины происходят спустя 8 лет. На этот раз в центре сюжета — не криминальные разборки, а политические интриги. В приморском городе N начинаются выборы мэра. Кандидаты — местный криминальный авторитет Турист и городской Прокурор.
Жизнь города резко меняется: борьба за власть набирает обороты: в город приезжают московские политтехнологи, изо всех сил работает местное телевидение, задействованы все криминальные группировки, поддержать кандидатов приехали даже звезды шоу-бизнеса.
Все идет неплохо, пока на побывку не прибывает Морячок. Жизнь тихого городка становится окончательно непредсказуемой…
Питерскому режиссёру Максиму Пежемскому, который вновь привлёк к написанию сценария Константина Мурзенко, всё-таки удалось сохранить в продолжении успевшей стать культовой за семь с лишним лет иронической криминальной комедии «Мама не горюй» не так уж просто дающуюся интонацию лёгкого стёба в описании нравов приморского городка, где ныне должны состояться выборы мэра. На эту «весьма хлебную должность» претендуют городской прокурор и хорошо известный по своим прошлым делам местный криминальный авторитет по прозвищу Турист. Из Москвы для рекламной раскрутки прокурора специально вызваны ловкие политтехнологи, а для участия в прямом телеринге обоих кандидатов — участницы популярной девичьей шоу-группы «Штучки». Но все заранее придуманные планы рушатся из-за того, что в действие вмешиваются Морячок, который сошёл на берег для встречи с молодой женой, и Зубек, только что освободившийся из тюрьмы, чтобы повидаться с «женщиной своей мечты». А вот «разруливать» непростую ситуацию предстоит Артуру, который и сам теряется, когда события принимают вовсе неожиданный поворот…
Но Пежемскому, к счастью, вообще не требуется городить на экране без какой-либо на то необходимости «целые горы жмуриков» (как в «Жмурках» Алексея Балабанова) или же стращать кровавым натурализмом в исполнении таинственного маньяка-убийцы, которым может оказаться практически любой посетитель ночного магазинчика («Ночной продавец» Валерия Рожнова) — тут специально упомянуты ещё две картины продюсера Сергея Сельянова. И даже тот кондово-прямолинейный посыл, что содержится в финале «Жмурок», где бывшие «мочильщики» уже заделались депутатами Госдумы, восседающими в кабинетах на фоне Кремля, выражен в сиквеле «Мама не горюй 2» куда тоньше, остроумнее и сатиричнее, демонстрируя мелкие провинциальные предвыборные дрязги криминальных и законотворческих авторитетов, которые фактически ничем не отличаются друг от друга. Максим Пежемский чувствует комедийный жанр и подчас ловко балансирует на грани откровенного балагана, бездумного дуракаваляния, к чему почти неизбежно скатываются другие режиссёры нынешних российских фильмов.
2005
Формат : AVI
Формат/Информация : Audio Video Interleave
Размер файла : 1,37 Гбайт
Продолжительность : 1 ч. 42 м.
Общий поток : 1914 Кбит/сек
Программа кодирования : VirtualDub-MPEG2-Rus 1.5.4.1 (build 2178/release)
Библиотека кодирования : VirtualDubMod build 2178/release
Видео
Идентификатор : 0
Формат : MPEG-4 Visual
Профиль формата : Advanced [email protected]
Параметр BVOP формата : 1
Параметр QPel формата : Нет
Параметр GMC формата : Без точки перехода
Параметр матрицы формата : Выборочная
Идентификатор кодека : XVID
Идентификатор кодека/Подсказка : XviD
Продолжительность : 1 ч. 42 м.
Битрейт : 1715 Кбит/сек
Ширина : 720 пикс.
Высота : 400 пикс.
Соотношение сторон : 16:9
Частота кадров : 25,000 кадр/сек
Цветовое пространство : YUV
Подвыборка цветности : 4:2:0
Битовая глубина : 8 бит
Тип развёртки : Прогрессивная
Метод сжатия : С потерями
Бит/(Пиксели*Кадры) : 0.238
Размер потока : 1,22 Гбайт (90%)
Библиотека кодирования : XviD 1.1.0 (UTC 2005-11-22)
Аудио
Идентификатор : 1
Формат : AC-3
Формат/Информация : Audio Coding 3
Расширение режима : CM (complete main)
Идентификатор кодека : 2000
Продолжительность : 1 ч. 42 м.
Вид битрейта : Постоянный
Битрейт : 192 Кбит/сек
Каналы : 2 канала
Расположение каналов : Front: L R
Частота : 48,0 КГц
Битовая глубина : 16 бит
Метод сжатия : С потерями
Размер потока : 140 Мбайт (10%)
Выравнивание : Разделение по промежуткам
Продолжительность промежутка : 96 мс. (2,40 видеокадра)
Время предзагрузки промежутка : 96 ms
Язык : Russian
Источник/Качество: DVDRip
Формат: AVI
Видео кодек: XviD
Аудио кодек: AC3
Видео: 720x400 (1.80:1), 25 fps, XviD Final 1.1 (build 41) ~1715 kbps avg, 0.238 bit/pixel
Аудио: 48 kHz, AC3 Dolby Digital, 2/0 (L,R) ch, ~192 kbps
Download / Скачать

Хотите скачать бесплатно? Зарегистрируйтесь на сайте (ссылка на регистрацию). Pirat.ca - самый быстрый торрент трекер в рунете!

Как скачивать  ·   Что такое торрент  ·   Рейтинг и ограничения



Последний раз редактировалось: kufre (2012-04-08 21:12), всего редактировалось 2 раз(а)

Пост 08-Апр-2012 21:34 (спустя 3 часа)

Топик был перенесен из форума Наше Кино в форум Российские фильмы

genkasper
 

сема84

Штурман

Пост 12-Апр-2012 18:55 (спустя 4 дня)

[Q] 

ргшрйв
[Профиль]  [ЛС] 

Амангельды

35490

Пост 12-Апр-2012 20:22 (спустя 1 час 27 минут)

[Q] 

Чудная комедия... Присоединюсь...

_________________

Товарищ, верь, пройдет она,
Так называемая гласность.
И вот тогда госбезопасность
Припомнит ваши имена
Раздачи от Амангельды - ТЫНЦ
[Профиль]  [ЛС] 
Показать сообщения:    
Ответить на тему

Текущее время: Сегодня 16:08

Часовой пояс: GMT + 4



Вы не можете начинать темы
Вы не можете отвечать на сообщения
Вы не можете редактировать свои сообщения
Вы не можете удалять свои сообщения
Вы не можете голосовать в опросах
Вы не можете прикреплять файлы к сообщениям
Вы не можете скачивать файлы

▼ Вниз