ML
     
  Уважаемый Гость!
Вы можете поддержать проект и зарегистрироваться у наших партнеров - онлайн-стратегия MyLands. При регистрации в игре Вы получите код, который сможете активировать после регистрации на pirat.ca и получить 1000 дублонов.

Ваш код:
74c28610d77aaac24ba694c4128f3b9b46b04220
 
     

Звезда (Николай Лебедев) [2002 г., боевик, драма, приключения, военный, история, BDRip-AVC] (Лицензия) [internal release]

Ответить на тему
 
Автор
Сообщение

Пост 08-Апр-2012 19:02

[Q] 

zyyx

--Звезда-- Год выпуска: 2002
Мировая премьера: 11 июля 2002
Российская премьера: 6 мая 2002, «ГУП `Московское кино`», «Мосфильм»
Дата выхода Blu-Ray: 20 мая 2010, «Цифровой Элемент»
Производство: Россия
Жанр: боевик, драма, приключения, военный, история
Продолжительность: 01:37:14
Перевод: Не требуется [Лицензия]
Субтитры: отсутствуют
Режиссер: Николай Лебедев
В ролях
Игорь Петренко, Алексей Панин, Артем Семакин, Алексей Кравченко, Анатолий Гущин, Амаду Мамадаков, Юрий Лагута, Екатерина Вуличенко, Андрей Егоров, Сергей Миллер
Описание
Лето 1944 года, Красная Армия ведет бои на подступах к западной границе СССР. В тыл врага отправляется группа разведчиков, молодых ребят. Их позывные — «Звезда». Они должны выполнить задание, от которого зависит судьба фронта.
И они выполняют его, но цена этого задания оказывается слишком дорогой. Полный напряжения и драматизма, фильм заставляет вспомнить, кто победил в этой войне.
Источник/Качество: BDRip-AVC | Сэмпл
Формат: MKV
Видео кодек: H.264
Аудио кодек: AC3
Видео: 992x592, 23.976 fps, 1 703 Kbps, 0.121 bit/pixel
Аудио: 48.0 KHz, 6 ch, 448 Kbps
General
Unique ID : 197049606952221035247863585395125356266 (0x943E5FB505378962BA41EC1B940586EA)
Complete name : H:\zyyx\Zvezda.2002.BDRip-AVC.zyyx.mkv
Format : Matroska
Format version : Version 2
File size : 1.47 GiB
Duration : 1h 38mn
Overall bit rate : 2 128 Kbps
Movie name : Звезда 2002 - Release for zyyx (pirat.ca)
Encoded date : UTC 2012-04-08 14:21:36
Writing application : mkvmerge v4.9.1 ('Ich will') сборка от Jul 11 2011 23:53:15
Writing library : libebml v1.2.1 + libmatroska v1.1.1
Video
ID : 1
Format : AVC
Format/Info : Advanced Video Codec
Format profile : [email protected]
Format settings, CABAC : Yes
Format settings, ReFrames : 16 frames
Muxing mode : Header stripping
Codec ID : V_MPEG4/ISO/AVC
Duration : 1h 38mn
Bit rate : 1 703 Kbps
Width : 992 pixels
Height : 592 pixels
Display aspect ratio : 1.676
Frame rate : 23.976 fps
Color space : YUV
Chroma subsampling : 4:2:0
Bit depth : 8 bits
Scan type : Progressive
Bits/(Pixel*Frame) : 0.121
Stream size : 1.13 GiB (77%)
Writing library : x264 core 116 r2044 392e762
Default : Yes
Forced : No
Audio
ID : 2
Format : AC-3
Format/Info : Audio Coding 3
Mode extension : CM (complete main)
Muxing mode : Header stripping
Codec ID : A_AC3
Duration : 1h 38mn
Bit rate mode : Constant
Bit rate : 448 Kbps
Channel(s) : 6 channels
Channel positions : Front: L C R, Side: L R, LFE
Sampling rate : 48.0 KHz
Bit depth : 16 bits
Compression mode : Lossy
Stream size : 316 MiB (21%)
Default : Yes
Forced : No





Download / Скачать

Хотите скачать бесплатно? Зарегистрируйтесь на сайте (ссылка на регистрацию). Pirat.ca - самый быстрый торрент трекер в рунете!

Как скачивать  ·   Что такое торрент  ·   Рейтинг и ограничения

Пост 08-Апр-2012 19:25 (спустя 23 минуты)

Топик был перенесен из форума Наше Кино в форум Российские фильмы

genkasper
 

ksg111ban

Гроза морей

Пост 15-Апр-2012 11:48 (спустя 6 дней)

[Q] 

Хороший фильм о войне

_________________
[Профиль]  [ЛС] 

Jigsaw

Пост 12-Май-2012 23:40 (спустя 27 дней)

[Q] 

что что а это стоит посмотреть
 

krasavchik34

Пост 19-Авг-2012 13:38 (спустя 3 месяца 6 дней)

[Q] 

ay хороший фильм!!!!!!!!! благодарю.
[Профиль]  [ЛС] 

FeudorM

Корсар

Пост 01-Окт-2012 09:13 (спустя 1 месяц 11 дней)

[Q] 

[Профиль]  [ЛС] 
Показать сообщения:    
Ответить на тему

Текущее время: Сегодня 10:00

Часовой пояс: GMT + 4



Вы не можете начинать темы
Вы не можете отвечать на сообщения
Вы не можете редактировать свои сообщения
Вы не можете удалять свои сообщения
Вы не можете голосовать в опросах
Вы не можете прикреплять файлы к сообщениям
Вы не можете скачивать файлы

▼ Вниз