ML
     
  Уважаемый Гость!
Вы можете поддержать проект и зарегистрироваться у наших партнеров - онлайн-стратегия MyLands. При регистрации в игре Вы получите код, который сможете активировать после регистрации на pirat.ca и получить 1000 дублонов.

Ваш код:
bc31d8aef74c92e19ad67e34a8fa63c3b9b812fb
 
     

Охота на пиранью (Андрей Кавун) [2006 г., боевик, DVDRip]

Ответить на тему
 
Автор
Сообщение

Пост 04-Дек-2011 18:14

[Q] 

avzaytsev

Морской Волк

Охота на пиранью
Год выпуска: 2006
Производство: Россия
Жанр: боевик
Продолжительность: 01:59:23
Режиссер: Андрей Кавун
В ролях: Андрей Мерзликин, Виктория Исакова, Евгений Миронов, Михаил Ефремов, Сергей Гармаш, Алексей Горбунов, Владимир Машков, Светлана Антонова
Описание: Под видом совместного отпуска агент спецподразделения «Пираньи» Кирилл Мазур с коллегой Ольгой направляются на Север с заданием ликвидировать подводный склад секретного оружия. Неожиданно они оказываются в мире, где законы цивилизации забыты, а смертоносное оружие захвачено бандитами под предводительством нового «хозяина тайги» Прохора, который на досуге развлекается настоящей охотой на людей. Мазур не ожидал, что ему придется сменить привычный автомат на самодельный костяной нож, и спасать себя и напарницу, вместо того, чтобы спасать мир. Но и охотники не догадывались, что для них это сафари в северных лесах окажется не менее опасным, чем для живых мишеней.
КиноПоиск
Источник/Качество: DVDRip
Формат: AVI
Видео кодек: XviD
Аудио кодек: AC3
Видео: 640x288 (2.22:1), 25 fps, XviD Final 1.1 (build 41) ~1186 kbps avg, 0.26 bit/pixel
Аудио: 48 kHz, AC3 Dolby Digital, 3/2 (L,C,R,l,r) + LFE ch, ~448 kbps
Общее
Полное имя : Охота на пиранью.avi
Формат : AVI
Формат/Информация : Audio Video Interleave
Размер файла : 1,37 Гбайт
Продолжительность : 1 ч. 59 м.
Общий поток : 1644 Кбит/сек
Название фильма : Ohota na piran`yu
Режиссёр : KAMO®
Жанр : Action/Detective
Программа кодирования : VirtualDubMod 1.5.10.1 (build 2439/release)
Формат оригинала/Имя : Movie
Правообладатель : KAMO®
Видео
Идентификатор : 0
Формат : MPEG-4 Visual
Профиль формата : Advanced [email protected]
Параметр BVOP формата : 2
Параметр QPel формата : Нет
Параметр GMC формата : Без точки перехода
Параметр матрицы формата : Default (MPEG)
Идентификатор кодека : XVID
Идентификатор кодека/Подсказка : XviD
Продолжительность : 1 ч. 59 м.
Битрейт : 1187 Кбит/сек
Ширина : 640 пикселей
Высота : 288 пикселей
Соотношение сторон : 2,222
Частота кадров : 25,000 кадров/сек
Цветовое пространство : YUV
Субдискретизация насыщенности : 4:2:0
Битовая глубина : 8 бит
Тип развёртки : Прогрессивная
Метод сжатия : С потерями
Бит/(Пиксели*Кадры) : 0.258
Размер потока : 1014 Мбайт (72%)
Библиотека кодирования : XviD 1.1.0 (UTC 2005-11-22)
Аудио
Идентификатор : 1
Формат : AC-3
Формат/Информация : Audio Coding 3
Расширение режима : CM (complete main)
Идентификатор кодека : 2000
Продолжительность : 1 ч. 59 м.
Вид битрейта : Постоянный
Битрейт : 448 Кбит/сек
Каналы : 6 каналов
Расположение каналов : Front: L C R, Side: L R, LFE
Частота : 48,0 КГц
Битовая глубина : 16 бит
Метод сжатия : С потерями
Размер потока : 382 Мбайт (27%)
Выравнивание : Разделение по промежуткам
Продолжительность промежутка : 40 мс. (1,00 видеокадр)
Время предзагрузки промежутка : 500 мс.


Download / Скачать

Хотите скачать бесплатно? Зарегистрируйтесь на сайте (ссылка на регистрацию). Pirat.ca - самый быстрый торрент трекер в рунете!

Как скачивать  ·   Что такое торрент  ·   Рейтинг и ограничения

Пост 04-Дек-2011 20:29 (спустя 2 часа 15 минут)

Топик был перенесен из форума Наше Кино в форум Российские фильмы

Skinwalker
 

Omgbogdane

Штурман

Пост 22-Авг-2012 14:48 (спустя 8 месяцев 17 дней)

[Q] 

не каяает фильм нихрена.
[Профиль]  [ЛС] 

antis1962

Корсар

Пост 23-Авг-2012 23:41 (спустя 1 день 8 часов)

[Q] 

Во,закрутили сюжет))
[Профиль]  [ЛС] 

Nightwalker

Гроза морей

Пост 10-Ноя-2012 20:52 (спустя 2 месяца 17 дней)

[Q] 

Спасибо!

_________________
Хотя и сладостен азарт, по сразу двум идти дорогам, нельзя одной колодой карт, играть и с Дьяволом и Богом.
[Профиль]  [ЛС] 

alextaganovich

Морской Волк

Пост 11-Ноя-2012 08:51 (спустя 11 часов)

[Q] 

Спасибо! Хороший фильм
[Профиль]  [ЛС] 

hohol541

Корсар

Пост 29-Дек-2012 10:40 (спустя 1 месяц 18 дней)

[Q] 

Я раньше прочитал книгу,поэтому фильм не совпал с ожиданиями.
[Профиль]  [ЛС] 

dellinspirion

Шкипер

Пост 30-Окт-2013 23:01 (спустя 10 месяцев 1 день)

[Q] 

Никто не раздает?

_________________
[Профиль]  [ЛС] 

Монах0403

Штурман

Пост 27-Ноя-2013 13:54 (спустя 27 дней)

[Q] 

Отличный фильм.Для меня стал классикой. Автору респект!!!
[Профиль]  [ЛС] 

E8GEN

Корсар

Пост 12-Дек-2013 18:35 (спустя 15 дней)

[Q] 

Машков+Бушков...в этом что то есть)Хороший фильм,в книге конечно всё по другому
[Профиль]  [ЛС] 

fando

Штурман

Пост 13-Янв-2014 10:56 (спустя 1 месяц)

[Q] 

Спасибо!!! dc
[Профиль]  [ЛС] 

polyk

Флибустьер

Пост 13-Янв-2014 19:42 (спустя 8 часов)

[Q] 

норм кино!!!!!!!!!!!!!!!!
[Профиль]  [ЛС] 

hohol541

Корсар

Пост 07-Фев-2014 13:05 (спустя 24 дня)

[Q] 

После книги фильм как-то не очень...
[Профиль]  [ЛС] 

Alexe10

Гроза морей

36

Пост 23-Окт-2014 07:51 (спустя 8 месяцев 15 дней)

[Q] 

Автору респект!!!
[Профиль]  [ЛС] 
Показать сообщения:    
Ответить на тему

Текущее время: Сегодня 11:59

Часовой пояс: GMT + 4



Вы не можете начинать темы
Вы не можете отвечать на сообщения
Вы не можете редактировать свои сообщения
Вы не можете удалять свои сообщения
Вы не можете голосовать в опросах
Вы не можете прикреплять файлы к сообщениям
Вы не можете скачивать файлы

▼ Вниз