ML
     
  Уважаемый Гость!
Вы можете поддержать проект и зарегистрироваться у наших партнеров - онлайн-стратегия MyLands. При регистрации в игре Вы получите код, который сможете активировать после регистрации на pirat.ca и получить 1000 дублонов.

Ваш код:
4399ab8611ee7f8a22949d2ee7634160dd2db7e0
 
     

Самоубийцы (Егор Баранов) [2012 г., комедия, HDRip-AVC] (Лицензия) [internal release]

Ответить на тему
 
Автор
Сообщение

Пост 12-Апр-2012 02:35

[Q] 

zyyx

--Самоубийцы
«Иди в кино, не дай им умереть»
-- Год выпуска: 2012
Мировая премьера: 1 марта 2012
Российская премьера: 1 марта 2012, «Парадиз»
Дата выхода DVD: 22 марта 2012, «Новый Диск»
Производство: Россия
Жанр: комедия
Продолжительность: 01:29:13
Перевод: Не требуется [Лицензия]
Режиссер: Егор Баранов
В ролях: Евгений Стычкин, Алексей Воробьев, Оксана Акиньшина, Гоша Куценко, Вилле Хаапасало, Марат Башаров, Михаил Полицеймако, Александр Стриженов, Евгений Рахманько, Даниил Меркулов
Описание: Комедия о головокружительных приключениях трех друзей — Алексея, Толика и Марины, которые решили свести счеты с жизнью. Собрав вокруг себя неприкаянных единомышленников, новые друзья решают напоследок исполнить по последнему желанию друг друга. Это, на первый взгляд, безобидное решение превращает жизнь героев в непрерывный калейдоскоп феерических событий. Чем активнее друзья исполняют самые неожиданные желания друг друга, тем невероятнее истории, в которые они попадают.
Источник/Качество: HDRip-AVC | Сэмпл
Формат: MKV
Видео кодек: H.264
Аудио кодек: AC3
Видео: 1024x432, 25.000 fps, 2023 Kbps, 0.183 bit/pixel
Аудио: 48.0 KHz, 6 ch, 320 Kbps
General
Unique ID : 209030891549957066364002603595894273733 (0x9D41E2A53C6EFB8F882080E374DAB6C5)
Complete name : O:\rips zyyx\Samoubijcy.2012.HDRip-AVC.zyyx.mkv
Format : Matroska
Format version : Version 2
File size : 1.46 GiB
Duration : 1h 29mn
Overall bit rate : 2 343 Kbps
Movie name : Самоубийцы 2012 - Release for zyyx (pirat.ca)
Encoded date : UTC 2012-04-11 22:19:41
Writing application : mkvmerge v4.9.1 ('Ich will') сборка от Jul 11 2011 23:53:15
Writing library : libebml v1.2.1 + libmatroska v1.1.1
Video
ID : 1
Format : AVC
Format/Info : Advanced Video Codec
Format profile : [email protected]
Format settings, CABAC : Yes
Format settings, ReFrames : 11 frames
Muxing mode : Header stripping
Codec ID : V_MPEG4/ISO/AVC
Duration : 1h 29mn
Bit rate : 2 023 Kbps
Width : 1 024 pixels
Height : 432 pixels
Display aspect ratio : 2.35:1
Frame rate : 25.000 fps
Color space : YUV
Chroma subsampling : 4:2:0
Bit depth : 8 bits
Scan type : Progressive
Bits/(Pixel*Frame) : 0.183
Stream size : 1.23 GiB (84%)
Writing library : x264 core 116 r2044 392e762
Default : Yes
Forced : No
Audio
ID : 2
Format : AC-3
Format/Info : Audio Coding 3
Mode extension : CM (complete main)
Muxing mode : Header stripping
Codec ID : A_AC3
Duration : 1h 29mn
Bit rate mode : Constant
Bit rate : 320 Kbps
Channel(s) : 6 channels
Channel positions : Front: L C R, Side: L R, LFE
Sampling rate : 48.0 KHz
Bit depth : 16 bits
Compression mode : Lossy
Stream size : 204 MiB (14%)
Default : Yes
Forced : No





Download / Скачать

Хотите скачать бесплатно? Зарегистрируйтесь на сайте (ссылка на регистрацию). Pirat.ca - самый быстрый торрент трекер в рунете!

Как скачивать  ·   Что такое торрент  ·   Рейтинг и ограничения

Пост 12-Апр-2012 10:19 (спустя 7 часов)

Топик был перенесен из форума Наше Кино в форум Новинки (HD|DVD|BD|TV|SAT|PDTV| - Rips)

genkasper
 

UncleTim

Корсар

Пост 18-Апр-2012 11:51 (спустя 6 дней)

[Q] 

[Профиль]  [ЛС] 

rulespb

Шкипер

43

Пост 19-Апр-2012 01:10 (спустя 13 часов)

[Q] 

как фильм? стоит качать?
[Профиль]  [ЛС] 

Valentin2010

Корсар

Пост 19-Апр-2012 10:56 (спустя 9 часов)

[Q] 

Мне понравился, если есть свободное время можно и посмотреть.

_________________
"Никогда не мстите подлым людям. Просто станьте счастливыми. И они этого не переживут... " – Юрий Никулин
[Профиль]  [ЛС] 

marcopolo27

Шкипер

Пост 19-Апр-2012 12:29 (спустя 1 час 32 минуты)

[Q] 

Давно такой мути не смотрел, деградация отечественного cinema налицо. Главное вложить доллар - получить два, а что снято , вообще пох.....
[Профиль]  [ЛС] 

FeudorM

Корсар

Пост 19-Апр-2012 16:53 (спустя 4 часа)

[Q] 

[Профиль]  [ЛС] 

Madarashi

Корсар

Пост 05-Май-2012 15:31 (спустя 15 дней)

[Q] 

[Профиль]  [ЛС] 

Halfsmart

Морской Волк

209

Пост 06-Май-2012 08:25 (спустя 16 часов)

[Q] 

Давно такой мути не смотрел, деградация отечественного cinema налицо. Главное вложить доллар - получить два, а что снято , вообще пох.....
Это везде так, кино - это вообще-то бизнес и выручка от проката фильма говорит о его успешности. Другое дело - это когда "творец" берет государственные деньги и снимает то, что только ему и паре его друзей может понравиться.
[Профиль]  [ЛС] 

Пост 18-Май-2012 08:13 (спустя 11 дней)

Топик был перенесен из форума Новинки (HD|DVD|BD|TV|SAT|PDTV| - Rips) в форум Российские фильмы

ara1205
 

krasavchik34

Пост 19-Авг-2012 13:37 (спустя 3 месяца 13 дней)

[Q] 

смотрел!! класс.
[Профиль]  [ЛС] 

rfnz

Лоцман

Пост 27-Авг-2012 21:33 (спустя 8 дней)

[Q] 

Этот фильм - бредовая сказка, но мне все равно понравилось))) Не пожалела потраченного времени, смеялась от души))
[Профиль]  [ЛС] 

Димарик82

Корсар

725

Пост 28-Авг-2012 21:36 (спустя 1 день)

[Q] 

[Профиль]  [ЛС] 

hohol541

Корсар

Пост 29-Дек-2012 10:53 (спустя 4 месяца)

[Q] 

Двойственно,но смотреть можно.
[Профиль]  [ЛС] 

reliz82

Шкипер

49

Пост 01-Янв-2013 10:36 (спустя 2 дня 23 часа)

[Q] 

Посмотрим. Оценим. Напишем
[Профиль]  [ЛС] 

Алоизий

Флибустьер

Пост 01-Янв-2013 18:14 (спустя 7 часов)

[Q] 

Спасибо.
[Профиль]  [ЛС] 

colonel96

Морской Волк

Пост 06-Янв-2013 10:52 (спустя 4 дня)

[Q] 

Бред, но пару раз улыбнуло
[Профиль]  [ЛС] 

sandman1973

Гроза морей

2128

Пост 27-Фев-2013 10:23 (спустя 1 месяц 20 дней)

[Q] 

А мне понравилось ))) По мотивам Бойцовкого клуба )


_________________

[Профиль]  [ЛС] 

Scorpion7474

Флибустьер

Пост 19-Май-2014 14:18 (спустя 1 год 2 месяца)

[Q] 

Спасибо!!! Лови бочку
[Профиль]  [ЛС] 
Показать сообщения:    
Ответить на тему

Текущее время: Сегодня 10:48

Часовой пояс: GMT + 4



Вы не можете начинать темы
Вы не можете отвечать на сообщения
Вы не можете редактировать свои сообщения
Вы не можете удалять свои сообщения
Вы не можете голосовать в опросах
Вы не можете прикреплять файлы к сообщениям
Вы не можете скачивать файлы

▼ Вниз