ML
     
  Уважаемый Гость!
Вы можете поддержать проект и зарегистрироваться у наших партнеров - онлайн-стратегия MyLands. При регистрации в игре Вы получите код, который сможете активировать после регистрации на pirat.ca и получить 1000 дублонов.

Ваш код:
1a5b0a965618b2c406d4279ec9924ee6282c60cf
 
     

8 первых свиданий (Дэвид Додсон, Александр Маляревский) [2012 г., комедия, BDRip-AVC] (Лицензия) [internal release]

Ответить на тему
 
Автор
Сообщение

Пост 12-Апр-2012 13:28

[Q] 

zyyx

--8 первых свиданий
«Не проспи свою любовь!»
-- Год выпуска: 2012
Мировая премьера: 8 марта 2012
Российская премьера: 8 марта 2012, «Централ Партнершип»
Дата выхода DVD: 5 апреля 2012, «Новый Диск»
Дата выхода Blu-Ray: 12 апреля 2012, «Новый Диск»
Производство: Россия
Жанр: комедия
Продолжительность: 01:26:34
Перевод: Не требуется [Лицензия]
Субтитры: отсутствуют
Режиссер: Дэвид Додсон, Александр Маляревский
В ролях
Оксана Акиньшина, Владимир Зеленский, Денис Никифоров, Екатерина Варнава, Сабина Ахмедова, Ильдар Аллабирдин, Сергей Барковский, Наталья Иохвидова, Игорь Жижикин, Елена Кондулайнен
Описание
Вера — телезвезда, ее жених Константин — профессиональный теннисист. Они собираются пожениться. Никита врач-ветеринар и красавица-хирург Илона также спешат оформить отношения. Но одно прекрасное утро разрушает все планы. После веселого вечера Вера просыпается в одной постели с Никитой. Решив, что это последствия слишком бурной вечеринки, молодые люди разъезжаются в разные стороны. Но следующим днем все повторяется — Никита и Вера снова вместе, хотя каждый хорошо помнит, как они засыпали дома — каждый у себя… Так происходит всю последующую неделю. Какие-то таинственные силы устраивают эти неожиданные «свидания», кто-то хочет разрушить их браки, а может быть просто доказать, что они созданы друг для друга?
Источник/Качество: BDRip-AVC | Сэмпл
Формат: MKV
Видео кодек: H.264
Аудио кодек: AC3
Видео: 992x416, 24.000 fps, 1968 Kbps, 0.199 bit/pixel
Аудио: 48.0 KHz, 6 ch, 448 Kbps
General
Unique ID : 193458462681434969496325347645037987213 (0x918ABE9FE58C6C43A37A5095325FC58D)
Complete name : O:\rips zyyx\8.pervuh.svidaniy.2012.BDRip-AVC.zyyx.mkv
Format : Matroska
Format version : Version 2
File size : 1.46 GiB
Duration : 1h 26mn
Overall bit rate : 2 417 Kbps
Movie name : 8 первых свиданий 2012 - Release for zyyx (pirat.ca)
Encoded date : UTC 2012-04-12 09:23:35
Writing application : mkvmerge v4.9.1 ('Ich will') сборка от Jul 11 2011 23:53:15
Writing library : libebml v1.2.1 + libmatroska v1.1.1
Video
ID : 1
Format : AVC
Format/Info : Advanced Video Codec
Format profile : [email protected]
Format settings, CABAC : Yes
Format settings, ReFrames : 11 frames
Muxing mode : Header stripping
Codec ID : V_MPEG4/ISO/AVC
Duration : 1h 26mn
Bit rate : 1 968 Kbps
Width : 992 pixels
Height : 416 pixels
Display aspect ratio : 2.40:1
Frame rate : 24.000 fps
Color space : YUV
Chroma subsampling : 4:2:0
Bit depth : 8 bits
Scan type : Progressive
Bits/(Pixel*Frame) : 0.199
Stream size : 1.16 GiB (79%)
Writing library : x264 core 116 r2044 392e762
Default : Yes
Forced : No
Audio
ID : 2
Format : AC-3
Format/Info : Audio Coding 3
Mode extension : CM (complete main)
Muxing mode : Header stripping
Codec ID : A_AC3
Duration : 1h 26mn
Bit rate mode : Constant
Bit rate : 448 Kbps
Channel(s) : 6 channels
Channel positions : Front: L C R, Side: L R, LFE
Sampling rate : 48.0 KHz
Bit depth : 16 bits
Compression mode : Lossy
Stream size : 277 MiB (19%)
Default : Yes
Forced : No







Download / Скачать

Хотите скачать бесплатно? Зарегистрируйтесь на сайте (ссылка на регистрацию). Pirat.ca - самый быстрый торрент трекер в рунете!

Как скачивать  ·   Что такое торрент  ·   Рейтинг и ограничения

Пост 12-Апр-2012 15:00 (спустя 1 час 31 минута)

Топик был перенесен из форума Художественные фильмы (Зарубежное кино) в форум Новинки (HD|DVD|BD|TV|SAT|PDTV| - Rips)

ara1205
 

AlexuS

Морской Волк

Пост 12-Апр-2012 21:22 (спустя 7 часов)

[Q] 

[Профиль]  [ЛС] 

Sage

Морской Волк

Пост 20-Апр-2012 16:56 (спустя 7 дней)

[Q] 

Огромное спасибо!

_________________
Все, написанное мной — ИМХО!
[Профиль]  [ЛС] 

bolin

Флибустьер

Пост 26-Апр-2012 14:22 (спустя 5 дней)

[Q] 

Спасибо ві супер!
[Профиль]  [ЛС] 

Voland57

Корсар

Пост 03-Май-2012 19:40 (спустя 7 дней)

[Q] 

Спасибо!!!
[Профиль]  [ЛС] 

Madarashi

Корсар

Пост 05-Май-2012 15:29 (спустя 1 день 19 часов)

[Q] 

Спасибо!!!
[Профиль]  [ЛС] 

Пост 18-Май-2012 08:12 (спустя 12 дней)

Топик был перенесен из форума Новинки (HD|DVD|BD|TV|SAT|PDTV| - Rips) в форум Российские фильмы

ara1205
 

Sergi4

Гроза морей

Пост 25-Май-2012 11:21 (спустя 19 дней)

[Q] 

[Профиль]  [ЛС] 

koks

Корсар

168

Пост 03-Июн-2012 13:47 (спустя 9 дней)

[Q] 


_________________
[Профиль]  [ЛС] 

dedmazai55

Морской Волк

Пост 21-Июн-2012 22:12 (спустя 18 дней)

[Q] 

[Профиль]  [ЛС] 

Bozo

Флибустьер

Пост 29-Сен-2012 18:52 (спустя 3 месяца 7 дней)

[Q] 

ничё так, можно посмотреть
[Профиль]  [ЛС] 

TomCatGun

Флибустьер

Пост 08-Окт-2012 22:38 (спустя 9 дней)

[Q] 

Спасибо !!
[Профиль]  [ЛС] 

Inet Flaier

Лоцман

Пост 12-Ноя-2012 22:11 (спустя 1 месяц 3 дня)

[Q] 


Весёлый фильм)
[Профиль]  [ЛС] 

Black_Hawk56

Штурман

Пост 02-Фев-2013 22:20 (спустя 2 месяца 20 дней)

[Q] 

Со второй половинкой самое оно смотреть;)
[Профиль]  [ЛС] 

Nickoljas

Морской Волк

Пост 01-Май-2014 19:26 (спустя 1 год 2 месяца)

[Q] 

Посмотрим) спасибо за раздачу Пиратка рулит!
[Профиль]  [ЛС] 

OLEG_PS2009

Флибустьер

Пост 04-Май-2016 10:12 (спустя 2 года)

[Q] 

Спасибо, фильм понравился))) Раздающему респект!
[Профиль]  [ЛС] 
Показать сообщения:    
Ответить на тему

Текущее время: Сегодня 23:52

Часовой пояс: GMT + 4



Вы не можете начинать темы
Вы не можете отвечать на сообщения
Вы не можете редактировать свои сообщения
Вы не можете удалять свои сообщения
Вы не можете голосовать в опросах
Вы не можете прикреплять файлы к сообщениям
Вы не можете скачивать файлы

▼ Вниз