ML
     
  Уважаемый Гость!
Вы можете поддержать проект и зарегистрироваться у наших партнеров - онлайн-стратегия MyLands. При регистрации в игре Вы получите код, который сможете активировать после регистрации на pirat.ca и получить 1000 дублонов.

Ваш код:
ec3b26eefbcdc72e08e9fd33c6846bb2ca10f8b1
 
     

Zолушка (Сергей Иванов) [2012 г., мелодрама, комедия, HDRip-AVC] (Лицензия) [internal release]

Ответить на тему
 
Автор
Сообщение

Пост 13-Апр-2012 01:32

[Q] 

zyyx

--Zолушка-- Год выпуска: 2012
Мировая премьера: 14 февраля 2012
Российская премьера: 14 февраля 2012, «Централ Партнершип»
Дата выхода DVD: 12 апреля 2012, «Новый Диск»
Дата выхода Blu-Ray: 12 апреля 2012, «Новый Диск»
Производство: Россия
Жанр: мелодрама, комедия
Продолжительность: 01:27:40
Перевод: Не требуется [Лицензия]
Субтитры: отсутствуют
Режиссер: Сергей Иванов
В ролях
Кристина Асмус, Никита Ефремов, Артем Ткаченко, Нонна Гришаева, Маргарита Исайкова, Юрий Стоянов, Елизавета Боярская, Сергей Буруно, Маргарита Бычкова, Виталий Гребенников
Описание
Героиня фильма, Маша Крапивина, — пока еще не красавица, и не то чтобы сказочная умница. Обычная девушка, рискнувшая, подобно тысячам ее сверстниц из самых разных уголков страны, покорить Москву, покинув свой родной провинциальный городок. Вечером учится, а с утра до вечера работает «на вредном производстве» — горничной в очень состоятельной семье. Крупу, конечно, не перебирает, но работы хватает: только успевай крутиться, чтобы угодить властной хозяйке и двум ее взбалмошным дочерям.
А Маша, между тем, как и миллионы других девчонок, по уши влюблена в известного певца Алексея Королевича. Она — его самая преданная фанатка, увы, без малейшего шанса на знакомство с предметом своих девичьих грёз. И надо же такому случиться — «знатное» семейство получает приглашение на бал, а точнее, закрытую вечеринку, где соберется вся культурная элита страны, а главное — там будет выступать ОН! И совершенно очевидно, что с этой минуты Маша готова на любые жертвы, чтобы тоже оказаться там. Но как? На помощь нашей Золушке, конечно же, приходит добрая фея в лице родной тетки Агнии, главного редактора издания «Желтый PRESS». Она готова добыть для «бедной родственницы» заветное приглашение, но с одним условием: Маша отправится на вечеринку с непростым и довольно пикантным журналистским заданием…
На этом совпадения с известной сказкой не заканчиваются: появится здесь и Король вполне олигархического типа, и Принц в окружении целой обоймы сегодняшних «звезд» шоу-бизнеса, и бой курантов, и даже «хрустальная туфелька», роль которой исполнит… Нет, пожалуй, пусть это пока останется тайной.
Зрителям же остается лишь с удовольствием следить за перипетиями этой старой, как мир, но ооочень современной истории и надеяться на счастливый финал, если, конечно, наша Золушка вовремя успеет разобраться, что настоящий «принц» — вовсе не тот, кого она себе нафантазировала.
Источник/Качество: HDRip-AVC | Сэмпл
Формат: MKV
Видео кодек: H.264
Аудио кодек: AC3
Видео: 1024x544, 25.000 fps, 2065 Kbps, 0.148 bit/pixel
Аудио: 48.0 KHz, 6 ch, 320 Kbps
General
Unique ID : 185136779638267261248840816985910089985 (0x8B480BF933CCD086BC77F2B003491901)
Complete name : O:\rips zyyx\Zolushka.2012.HDRip-AVC.zyyx.mkv
Format : Matroska
Format version : Version 2
File size : 1.46 GiB
Duration : 1h 27mn
Overall bit rate : 2 385 Kbps
Movie name : Zолушка 2012 - Release for zyyx (pirat.ca)
Encoded date : UTC 2012-04-12 21:26:08
Writing application : mkvmerge v4.9.1 ('Ich will') сборка от Jul 11 2011 23:53:15
Writing library : libebml v1.2.1 + libmatroska v1.1.1
Video
ID : 1
Format : AVC
Format/Info : Advanced Video Codec
Format profile : [email protected]
Format settings, CABAC : Yes
Format settings, ReFrames : 11 frames
Muxing mode : Header stripping
Codec ID : V_MPEG4/ISO/AVC
Duration : 1h 27mn
Bit rate : 2 065 Kbps
Width : 1 024 pixels
Height : 544 pixels
Display aspect ratio : 1.882
Frame rate : 25.000 fps
Color space : YUV
Chroma subsampling : 4:2:0
Bit depth : 8 bits
Scan type : Progressive
Bits/(Pixel*Frame) : 0.148
Stream size : 1.24 GiB (85%)
Writing library : x264 core 116 r2044 392e762
Default : Yes
Forced : No
Audio
ID : 2
Format : AC-3
Format/Info : Audio Coding 3
Mode extension : CM (complete main)
Muxing mode : Header stripping
Codec ID : A_AC3
Duration : 1h 27mn
Bit rate mode : Constant
Bit rate : 320 Kbps
Channel(s) : 6 channels
Channel positions : Front: L C R, Side: L R, LFE
Sampling rate : 48.0 KHz
Bit depth : 16 bits
Compression mode : Lossy
Stream size : 201 MiB (13%)
Default : Yes
Forced : No






Download / Скачать

Хотите скачать бесплатно? Зарегистрируйтесь на сайте (ссылка на регистрацию). Pirat.ca - самый быстрый торрент трекер в рунете!

Как скачивать  ·   Что такое торрент  ·   Рейтинг и ограничения

and28

Морской Волк

Пост 13-Апр-2012 05:15 (спустя 3 часа)

[Q] 

[Профиль]  [ЛС] 

Пост 13-Апр-2012 10:15 (спустя 4 часа)

Топик был перенесен из форума Наше Кино в форум Новинки (HD|DVD|BD|TV|SAT|PDTV| - Rips)

ara1205
 

Processor

Корсар

68

Пост 13-Апр-2012 20:37 (спустя 15 часов)

[Q] 

Спасибо!!!
[Профиль]  [ЛС] 

Pesok

Гроза морей

Пост 05-Май-2012 05:51 (спустя 21 день)

[Q] 

spasibo

_________________
[Профиль]  [ЛС] 

Пост 18-Май-2012 08:11 (спустя 13 дней)

Топик был перенесен из форума Новинки (HD|DVD|BD|TV|SAT|PDTV| - Rips) в форум Российские фильмы

ara1205
 

MaLbIsh

Морской Волк

Пост 17-Дек-2012 11:46 (спустя 7 месяцев 12 дней)

[Q] 

[Профиль]  [ЛС] 
Показать сообщения:    
Ответить на тему

Текущее время: Сегодня 03:50

Часовой пояс: GMT + 4



Вы не можете начинать темы
Вы не можете отвечать на сообщения
Вы не можете редактировать свои сообщения
Вы не можете удалять свои сообщения
Вы не можете голосовать в опросах
Вы не можете прикреплять файлы к сообщениям
Вы не можете скачивать файлы

▼ Вниз