ML
     
  Уважаемый Гость!
Вы можете поддержать проект и зарегистрироваться у наших партнеров - онлайн-стратегия MyLands. При регистрации в игре Вы получите код, который сможете активировать после регистрации на pirat.ca и получить 1000 дублонов.

Ваш код:
bc31d8aef74c92e19ad67e34a8fa63c3b9b812fb
 
     

Хочу в тюрьму (Алла Сурикова) [1998 г., комедия, DVDRip]

Ответить на тему
 
Автор
Сообщение

Пост 13-Апр-2012 16:09

[Q] 

erchine

Хочу в тюрьму
Год выпуска: 1998
Жанр: комедия
Продолжительность: 01:33:58
Режиссер: Алла Сурикова
В ролях: Анатолий Горин, Анатолий Калмыков, Наталья Гундарева, Владимир Ильин, Борис Щербаков, Алла Клюка, Сергей Баталов
Описание: Россия всегда была богата талантливыми людьми. В большинстве своем они отличались редкостным простодушием. Вот и Семен Лямкин, разработчик и конструктор технического чуда в виде канареечного «Запорожца» легко обгоняющего «Мерседесы» и плавающего не хуже «моторки» попал в неприятную историю.
Когда с его помощью один предприимчивый «работодатель» ограбил банк, Семен не стал дожидаться ареста, а, сев в «Запорожец» отправился в тюрьму. Но не российскую, а. .. голландскую, поскольку, по слухам, за бугром кутузки намного комфортабельнее.

Источник/Качество: DVDRip
Формат: AVI
Видео кодек: XviD
Аудио кодек: AC3
Видео: Xvid 720x544 25.00fps 1688 Kbps
Аудио: Dolby AC3 48000Hz 6ch 384kbps
General
Complete name : F:\Hochu.v.tjurmu.1998.XviD.DVDRip.avi
Format : AVI
Format/Info : Audio Video Interleave
File size : 1.36 GiB
Duration : 1h 33mn
Overall bit rate : 2 079 Kbps
Writing application : VirtualDubMod 1.5.4.1 (build 2178/release)
Writing library : VirtualDubMod build 2178/release
Video
ID : 0
Format : MPEG-4 Visual
Format profile : Advanced [email protected]
Format settings, BVOP : Yes
Format settings, QPel : No
Format settings, GMC : No warppoints
Format settings, Matrix : Custom
Codec ID : XVID
Codec ID/Hint : XviD
Duration : 1h 33mn
Bit rate : 1 688 Kbps
Width : 720 pixels
Height : 544 pixels
Display aspect ratio : 4:3
Frame rate : 25.000 fps
Resolution : 8 bits
Colorimetry : 4:2:0
Scan type : Progressive
Bits/(Pixel*Frame) : 0.172
Stream size : 1.11 GiB (81%)
Writing library : XviD 1.1.2 (UTC 2006-11-01)
Audio
ID : 1
Format : AC-3
Format/Info : Audio Coding 3
Format_Settings_ModeExtension : CM (complete main)
Codec ID : 2000
Duration : 1h 33mn
Bit rate mode : Constant
Bit rate : 384 Kbps
Channel(s) : 6 channels
Channel positions : Front: L C R, Side: L R, LFE
Sampling rate : 48.0 KHz
Stream size : 258 MiB (18%)
Alignment : Aligned on interleaves
Interleave, duration : 96 ms (2.40 video frames)
Interleave, preload duration : 96 ms
Language : Russian
Download / Скачать

Хотите скачать бесплатно? Зарегистрируйтесь на сайте (ссылка на регистрацию). Pirat.ca - самый быстрый торрент трекер в рунете!

Как скачивать  ·   Что такое торрент  ·   Рейтинг и ограничения

Пост 13-Апр-2012 16:24 (спустя 15 минут)

Топик был перенесен из форума Наше Кино в форум Российские фильмы

Linnan
 

CHARLI2236

1098

Пост 06-Май-2012 09:10 (спустя 22 дня)

[Q] 

спасибо

_________________
[Профиль]  [ЛС] 

hohol541

Корсар

Пост 29-Дек-2012 11:00 (спустя 7 месяцев 23 дня)

[Q] 

Крутой запор.Да и фильм лёгкий.
[Профиль]  [ЛС] 

Oleg Dobry

Штурман

Пост 31-Дек-2012 11:38 (спустя 2 дня)

[Q] 

запорожец - лучшая машинка
[Профиль]  [ЛС] 

Алоизий

Флибустьер

Пост 01-Янв-2013 18:15 (спустя 1 день 6 часов)

[Q] 

[Профиль]  [ЛС] 

and48

Корсар

169

Пост 02-Янв-2013 00:19 (спустя 6 часов)

[Q] 

Фильм отличный, кто не смотрел-советую!
[Профиль]  [ЛС] 

UncleFather

Легенда

Пост 23-Мар-2013 16:12 (спустя 2 месяца 21 день)

[Q] 


_________________
Одни боялись Пью, другие - Билли Бонса, а меня... меня боялся сам Флинт
[Профиль]  [ЛС] 

garryson

Морской Волк

10

Пост 16-Май-2013 17:06 (спустя 1 месяц 24 дня)

[Q] 

спасибо, забираю
[Профиль]  [ЛС] 

kronzvk

Шкипер

Пост 19-Май-2013 04:52 (спустя 2 дня 11 часов)

[Q] 

[Профиль]  [ЛС] 

valdemar-olvi

Штурман

Пост 24-Июн-2013 13:15 (спустя 1 месяц 5 дней)

[Q] 

Хороший фильм. Спасибо за раздачу!
[Профиль]  [ЛС] 

dambrina

Флибустьер

Пост 25-Июл-2014 16:45 (спустя 1 год 1 месяц)

[Q] 

отличный российский фильм :) Раздающему респект!
[Профиль]  [ЛС] 
Показать сообщения:    
Ответить на тему

Текущее время: Сегодня 11:58

Часовой пояс: GMT + 4



Вы не можете начинать темы
Вы не можете отвечать на сообщения
Вы не можете редактировать свои сообщения
Вы не можете удалять свои сообщения
Вы не можете голосовать в опросах
Вы не можете прикреплять файлы к сообщениям
Вы не можете скачивать файлы

▼ Вниз