ML
     
  Уважаемый Гость!
Вы можете поддержать проект и зарегистрироваться у наших партнеров - онлайн-стратегия MyLands. При регистрации в игре Вы получите код, который сможете активировать после регистрации на pirat.ca и получить 1000 дублонов.

Ваш код:
2a3da67fd641d69eeebb7cb965232435a70eaa24
 
     

Бедуин (Игорь Волошин) [2011 г., драма, DVDRip][лицензия]

Ответить на тему
 
Автор
Сообщение

Пост 14-Апр-2012 20:34

[Q] 

Vlad.84

Штурман

Бедуин
-Год выпуска: 2011
Страна: Россия
Жанр: драма
Продолжительность: 01:35:33
Режиссер: Игорь Волошин
В ролях: Ольга Симонова, Серафима Мигай, Михаил Евланов, Ремигиус Сабулис, Доржи Галсанов, Анна Михалкова, Динара Друкарова, Сергей Светлаков, Георгий Гургулия, Алиса Хазанова
Описание: Ради спасения больной лейкозом дочки, Рита решается стать суррогатной матерью для странной гей-пары. Однако получить деньги Рита не успевает. Лечение нельзя прерывать, поиски донора и запланированная операция по трансплантации костного мозга требуют принятия быстрых решений. Столкнувшись с бессилием врачей, Рита решается уехать в Иорданию, к бедуинам, которые лечат рак верблюжьим молоком. Она забирает дочь из больницы, и они летят в страну, которая, в итоге, меняет в их жизни все…- -Источник/Качество: DVDRip
Формат: AVI
Видео кодек: XviD
Аудио кодек: AC3
Видео: 720x384, 25.000 fps, XviD, 1728 Kbps
Аудио: AC3, 448 Kbps, 48.0 KHz, 6 ch
General
Complete name : Buduin.2012.O.DVDRip.avi
Format : AVI
Format/Info : Audio Video Interleave
File size : 1.46 GiB
Duration : 1h 35mn
Overall bit rate : 2 186 Kbps
Writing application : VirtualDubMod 1.5.10.2 (build 2540/release)
Writing library : VirtualDubMod build 2540/release
Video
ID : 0
Format : MPEG-4 Visual
Format profile : Advanced [email protected]
Format settings, BVOP : Yes
Format settings, QPel : No
Format settings, GMC : No warppoints
Format settings, Matrix : Custom
Codec ID : XVID
Codec ID/Hint : XviD
Duration : 1h 35mn
Bit rate : 1 728 Kbps
Width : 720 pixels
Height : 384 pixels
Display aspect ratio : 1.875
Frame rate : 25.000 fps
Color space : YUV
Chroma subsampling : 4:2:0
Bit depth : 8 bits
Scan type : Progressive
Bits/(Pixel*Frame) : 0.238
Stream size : 1.10 GiB (75%)
Writing library : XviD 1.2.1 (UTC 2008-12-04)
Audio
ID : 1
Format : AC-3
Format/Info : Audio Coding 3
Mode extension : CM (complete main)
Codec ID : 2000
Duration : 1h 35mn
Bit rate mode : Constant
Bit rate : 448 Kbps
Channel(s) : 6 channels
Channel positions : Front: L C R, Side: L R, LFE
Sampling rate : 48.0 KHz
Bit depth : 16 bits
Stream size : 306 MiB (20%)
Alignment : Split accross interleaves
-Релиз от:
Download / Скачать

Хотите скачать бесплатно? Зарегистрируйтесь на сайте (ссылка на регистрацию). Pirat.ca - самый быстрый торрент трекер в рунете!

Как скачивать  ·   Что такое торрент  ·   Рейтинг и ограничения

Пост 14-Апр-2012 21:20 (спустя 45 минут)

Топик был перенесен из форума Наше Кино в форум Российские фильмы

Linnan
 

Engener

Морской Волк

Пост 15-Апр-2012 09:58 (спустя 13 часов)

[Q] 

судя по всему, в фильме много чего происходит,тут и геи, и верблюды, суррогатные мамы и папы, больные лейкозом. Интересно, как при таком изобилии, успели еще и бедуинов снять?

_________________
Остановите Землю, я сойду!
[Профиль]  [ЛС] 

pro100userspb

Корсар

Пост 28-Апр-2012 16:09 (спустя 13 дней)

[Q] 

посмотрим Волошина

_________________
[Профиль]  [ЛС] 

Voland57

Корсар

Пост 03-Май-2012 19:33 (спустя 5 дней)

[Q] 

[Профиль]  [ЛС] 

Пост 17-Май-2012 11:12 (спустя 13 дней)

Топик был перенесен из форума Новинки (HD|DVD|BD|TV|SAT|PDTV| - Rips) в форум Российские фильмы

ara1205
 
Показать сообщения:    
Ответить на тему

Текущее время: Сегодня 01:17

Часовой пояс: GMT + 4



Вы не можете начинать темы
Вы не можете отвечать на сообщения
Вы не можете редактировать свои сообщения
Вы не можете удалять свои сообщения
Вы не можете голосовать в опросах
Вы не можете прикреплять файлы к сообщениям
Вы не можете скачивать файлы

▼ Вниз