ML
     
  Уважаемый Гость!
Вы можете поддержать проект и зарегистрироваться у наших партнеров - онлайн-стратегия MyLands. При регистрации в игре Вы получите код, который сможете активировать после регистрации на pirat.ca и получить 1000 дублонов.

Ваш код:
ec3b26eefbcdc72e08e9fd33c6846bb2ca10f8b1
 
     

Хлебный день (Максим Мехеда) [2012 г., драма, SATRip]

Ответить на тему
 
Автор
Сообщение

Пост 15-Апр-2012 12:42

[Q] 

erchine

Хлебный день
Год выпуска: 2012
Жанр: драма
Производство: Украина, Fresh Production UA
Украинская премьера: 28 марта 2012 (Интер)
Российская премьера: 13 апреля 2012 (Россия-1)
Оригинальный аудиопоток: русский
Продолжительность: 01:25:09
Режиссер: Максим Мехеда
В ролях: Георгий Штиль, Михаил Жигалов, Василий Прокопьев, Анатолий Котенёв, Леся Самаева, Нина Антонова, Татьяна Камбурова, Лина Будник, Владимир Мельник, Ольга Олексий, Виталий Иванченко, Алексей Тритенко, Наталья Доля, Сергей Никитин (V), Евгений Ефремов, Георгий Поволоцкий, Владимир Заднепровский, Игорь Портянко, Виктор Сарайкин
Описание: Действие фильма разворачивается в заброшенной деревне, где живет бывший фронтовик. Однажды он отправляется в город за деньгами, чтобы помочь пострадавшим в результате мошенничества односельчанам прожить до конца месяца. Все, что с ним случится дальше, и те ситуации, с которыми ему придется столкнуться, изменят его жизнь и окажут сильное влияние на судьбы незнакомых ему ранее людей.

Источник/Качество: SATRip
Формат: AVI
Видео кодек: DivX
Аудио кодек: MP3
Видео: DivX 5 704x384 25.00fps 2098 Kbps
Аудио: MPEG Audio Layer 3 48000Hz stereo 128kbps
General
Complete name : F:\Hlebnyj.den.2012.DivX.SATRip.avi
Format : AVI
Format/Info : Audio Video Interleave
File size : 1.33 GiB
Duration : 1h 25mn
Overall bit rate : 2 239 Kbps
Writing library : Boilsoft AVI tool build 1/release
Video
ID : 0
Format : MPEG-4 Visual
Format profile : [email protected]
Format settings, BVOP : No
Format settings, QPel : No
Format settings, GMC : No warppoints
Format settings, Matrix : Default (H.263)
Codec ID : DX50
Codec ID/Hint : DivX 5
Duration : 1h 25mn
Bit rate : 2 098 Kbps
Width : 704 pixels
Height : 384 pixels
Display aspect ratio : 16:9
Frame rate : 25.000 fps
Resolution : 8 bits
Colorimetry : 4:2:0
Scan type : Progressive
Bits/(Pixel*Frame) : 0.310
Stream size : 1.25 GiB (94%)
Writing library : XviD 1.2.1 (UTC 2008-12-04)
Audio
ID : 1
Format : MPEG Audio
Format version : Version 1
Format profile : Layer 3
Mode : Joint stereo
Format_Settings_ModeExtension : MS Stereo
Codec ID : 55
Codec ID/Hint : MP3
Duration : 1h 25mn
Bit rate mode : Constant
Bit rate : 128 Kbps
Channel(s) : 2 channels
Sampling rate : 48.0 KHz
Stream size : 78.0 MiB (6%)
Alignment : Aligned on interleaves
Interleave, duration : 24 ms (0.60 video frame)
Interleave, preload duration : 504 ms
Writing library : LAME3.98.2
Download / Скачать

Хотите скачать бесплатно? Зарегистрируйтесь на сайте (ссылка на регистрацию). Pirat.ca - самый быстрый торрент трекер в рунете!

Как скачивать  ·   Что такое торрент  ·   Рейтинг и ограничения

Пост 15-Апр-2012 13:52 (спустя 1 час 10 минут)

Топик был перенесен из форума Наше Кино в форум Новинки (HD|DVD|BD|TV|SAT|PDTV| - Rips)

ara1205
 

ksg111ban

Гроза морей

Пост 15-Апр-2012 17:01 (спустя 4 часа)

[Q] 

Всё-таки иногда и появляются стоящие фильмы,оставляющие след после просмотра.Человеческий,жизнеутверждающий дающий надежду что не всё потеряно в нашем обществе. Сильно, фильм впечатлил.

_________________
[Профиль]  [ЛС] 

ficus42

Корсар

Пост 15-Апр-2012 22:15 (спустя 5 часов)

[Q] 

Будем посмотреть.
[Профиль]  [ЛС] 

ZlobiN

Корсар

Пост 16-Апр-2012 08:02 (спустя 9 часов)

[Q] 

[Профиль]  [ЛС] 

gfill

Шкипер

Пост 18-Апр-2012 15:27 (спустя 2 дня 7 часов)

[Q] 

хороший фильм
[Профиль]  [ЛС] 

Барсик

Морской Волк

11

Пост 22-Апр-2012 08:40 (спустя 3 дня)

[Q] 

Спасибо кино отличное.Всем смотреть.Так надоели эти директоа со своими проблемами а тут вот оно наше настоящее без этой пафасной .......
[Профиль]  [ЛС] 

Voland57

Корсар

Пост 03-Май-2012 19:52 (спустя 11 дней)

[Q] 

Спасибо!!!
[Профиль]  [ЛС] 

Пост 15-Май-2012 17:04 (спустя 11 дней)

Топик был перенесен из форума Новинки (HD|DVD|BD|TV|SAT|PDTV| - Rips) в форум Российские фильмы

erchine
 

osvax

Морской Волк

412

Пост 15-Май-2012 21:40 (спустя 12 дней)

[Q] 

Спасибо
[Профиль]  [ЛС] 

khvorovs

Шкипер

13

Пост 16-Май-2012 22:12 (спустя 1 день)

[Q] 

[Профиль]  [ЛС] 

Yakudza

Шкипер

Пост 19-Май-2012 19:02 (спустя 2 дня 20 часов)

[Q] 

[Профиль]  [ЛС] 

ekcnev

Лоцман

Пост 25-Дек-2012 19:23 (спустя 7 месяцев 6 дней)

[Q] 

судя по аннотациям-стоит посмотреть.

_________________
[Профиль]  [ЛС] 

Евгений Чередников

Морской Волк

Пост 13-Фев-2014 23:54 (спустя 1 год 1 месяц)

[Q] 

Скорость как у черепахи

_________________
[Профиль]  [ЛС] 
Показать сообщения:    
Ответить на тему

Текущее время: Сегодня 03:49

Часовой пояс: GMT + 4



Вы не можете начинать темы
Вы не можете отвечать на сообщения
Вы не можете редактировать свои сообщения
Вы не можете удалять свои сообщения
Вы не можете голосовать в опросах
Вы не можете прикреплять файлы к сообщениям
Вы не можете скачивать файлы

▼ Вниз