ML
     
  Уважаемый Гость!
Вы можете поддержать проект и зарегистрироваться у наших партнеров - онлайн-стратегия MyLands. При регистрации в игре Вы получите код, который сможете активировать после регистрации на pirat.ca и получить 1000 дублонов.

Ваш код:
59354507ba913a0948d1a8f2e30f2e04c4cd7b9b
 
     

Казак (Игорь Копылов) [2012 г., боевик, криминал, SATRip]

Ответить на тему
 
Автор
Сообщение

Пост 16-Апр-2012 20:47

[Q] 

erchine

Казак
Год выпуска: 2012
Производство: Россия, Триикс Медиа
Жанр: боевик, криминал
Премьера: 23 марта 2012 (НТВ)
Продолжительность: 01:27:10
Режиссер: Игорь Копылов
В ролях: Николай Козак, Владимир Зайцев, Дарья Румянцева, Михаил Елисеев, Евгений Сиротин, Игорь Павлов, Игорь Царев, Ирина Сотикова
Описание: Тимофея Петрова выбирают новым атаманом казачьей станицы. К нему обращается бизнесмен из Петербурга — Зарецкий — и просит продать ему станичную землю под строительство завода. Предыдущий атаман отказал Зарецкому, ведь на этой земле казаки хотят построить церковь. Дочь Петрова, Катя, живет в Петербурге и поет в фольклорном ансамбле.
Однажды на корпоративной вечеринке Катю похищают. Она успевает позвонить отцу и сказать, что находится у деревни Ушанки. Девушку избивают и выбрасывают из машины. Петров срочно приезжает в Петербург. Недалеко от деревни Ушанки в канаве он находит полумертвую Катю. Атаман отвозит дочь в больницу — она без сознания, и врачи не могут гарантировать, что девушка выживет. Теперь Петров хочет только одного — найти обидчиков дочери и отомстить им. А за родную кровь да честное имя казаку и жизнь не жалко отдать!

Источник/Качество: SATRip
Формат: AVI
Видео кодек: XviD
Аудио кодек: MP3
Видео: Xvid 640x352 25.00fps 987 Kbps
Аудио: MPEG Audio Layer 3 48000Hz stereo 128kbps
General
Complete name : F:\kazak.avi
Format : AVI
Format/Info : Audio Video Interleave
File size : 700 MiB
Duration : 1h 27mn
Overall bit rate : 1 123 Kbps
Writing application : VirtualDubMod 1.5.4.1 (build 2178/release)
Writing library : VirtualDubMod build 2178/release
Video
ID : 0
Format : MPEG-4 Visual
Format profile : Advanced [email protected]
Format settings, BVOP : Yes
Format settings, QPel : No
Format settings, GMC : No warppoints
Format settings, Matrix : Custom
Codec ID : XVID
Codec ID/Hint : XviD
Duration : 1h 27mn
Bit rate : 987 Kbps
Width : 640 pixels
Height : 352 pixels
Display aspect ratio : 16:9
Frame rate : 25.000 fps
Resolution : 8 bits
Colorimetry : 4:2:0
Scan type : Progressive
Bits/(Pixel*Frame) : 0.175
Stream size : 616 MiB (88%)
Writing library : XviD 64
Audio
ID : 1
Format : MPEG Audio
Format version : Version 1
Format profile : Layer 3
Mode : Joint stereo
Format_Settings_ModeExtension : MS Stereo
Codec ID : 55
Codec ID/Hint : MP3
Duration : 1h 27mn
Bit rate mode : Constant
Bit rate : 128 Kbps
Channel(s) : 2 channels
Sampling rate : 48.0 KHz
Stream size : 79.8 MiB (11%)
Alignment : Aligned on interleaves
Interleave, duration : 80 ms (2.00 video frames)
Interleave, preload duration : 504 ms
Writing library : LAME3.97
Encoding settings : -m j -V 4 -q 2 -lowpass 17 -b 128
Download / Скачать

Хотите скачать бесплатно? Зарегистрируйтесь на сайте (ссылка на регистрацию). Pirat.ca - самый быстрый торрент трекер в рунете!

Как скачивать  ·   Что такое торрент  ·   Рейтинг и ограничения

Пост 16-Апр-2012 20:55 (спустя 8 минут)

Топик был перенесен из форума Наше Кино в форум Новинки (HD|DVD|BD|TV|SAT|PDTV| - Rips)

Linnan
 

kiryandr

Легенда

63133

Пост 16-Апр-2012 22:18 (спустя 1 час 31 минута)

[Q] 


_________________
[Профиль]  [ЛС] 

SERKOV

Шкипер

Пост 19-Апр-2012 19:45 (спустя 2 дня 21 час)

[Q] 

Сюжет много раз использованный в нашем кинематографе последних лет, разве что казаков в главной роли не было. Все довольно предсказуемо и как-то наиграно. В общем фильм - чуть выше среднего в своем жанре, из тех, каких сейчас штампуют во множестве. Можно один раз посмотреть (даже без перемотки) и забыть. Кстати качество рипа хорошее, за что спасибо раздающему!
kiryandr, Вы на всех раздачах в комментариях штампики "спасибо" и "респект" ставите, даже не скачав фильм, чтобы звание повысить? А вот на кнопку "спасибо" нажать ума не хватает.

_________________
Путина бояться - в сортир не ходить! (кавказская пословица)
[Профиль]  [ЛС] 

barbos80

Лоцман

Пост 20-Апр-2012 03:39 (спустя 7 часов)

[Q] 

[Профиль]  [ЛС] 

kloctuk

3306

Пост 22-Апр-2012 10:27 (спустя 2 дня 6 часов)

[Q] 

Эх, мои друзья и атаман учавствуют - джигитуют )))

_________________
-выстрели еще разок. -зачем? - его душа еще танцует...
[Профиль]  [ЛС] 

kloctuk

3306

Пост 22-Апр-2012 10:38 (спустя 11 минут)

[Q] 

Сорь, дубль

_________________
-выстрели еще разок. -зачем? - его душа еще танцует...
[Профиль]  [ЛС] 

MIXA999

Лоцман

Пост 23-Апр-2012 13:49 (спустя 1 день 3 часа)

[Q] 

Посмотреть можно 1 раз, а так действительно как сказал SERKOV, сюжет у наших фильмов один.
[Профиль]  [ЛС] 

Voland57

Корсар

Пост 03-Май-2012 19:48 (спустя 10 дней)

[Q] 

[Профиль]  [ЛС] 
Показать сообщения:    
Ответить на тему

Текущее время: Сегодня 16:06

Часовой пояс: GMT + 4



Вы не можете начинать темы
Вы не можете отвечать на сообщения
Вы не можете редактировать свои сообщения
Вы не можете удалять свои сообщения
Вы не можете голосовать в опросах
Вы не можете прикреплять файлы к сообщениям
Вы не можете скачивать файлы

▼ Вниз