ML
     
  Уважаемый Гость!
Вы можете поддержать проект и зарегистрироваться у наших партнеров - онлайн-стратегия MyLands. При регистрации в игре Вы получите код, который сможете активировать после регистрации на pirat.ca и получить 1000 дублонов.

Ваш код:
2a3da67fd641d69eeebb7cb965232435a70eaa24
 
     

Южный календарь (Денис Карро) [2010 г., драма, SATRip]

Ответить на тему
 
Автор
Сообщение

Пост 19-Апр-2012 16:21

[Q] 

erchine

Южный календарь
Год выпуска: 2010
Производство: Россия
Жанр: драма
Премьера: 7 апреля 2012 (Россия-1)
Продолжительность: 01:27:49
Режиссер: Денис Карро
В ролях: Ангелина Миримская, Виктория Исакова, Алексей Девотченко, Николай Козак, Ольга Тумайкина, Михаил Кабанов (II), Светлана Дикаанидас, Дмитрий Ратомский, Ольга Стрелецкая, Андрей Таратухин, Александра Нижегородова, Артемий Гринченко, Ирина Гурова, Кирилл Болтаев, Сергей Угаров
Описание: Фильм «Южный календарь» состоит из трех новелл, действия которых происходят на российском юге, на берегу Черного моря. Каждая новелла — это история человека, не вписавшегося в современную российскую действительность.
Первая история называется «Ничего» и рассказывает о директоре археологического музея. Музей нуждается в капитальном ремонте. Герой новеллы безуспешно пытается найти деньги на ремонт, но его музей никому не нужен — ни государству, ни представителям элиты общества. Зато уникальными экспонатами музея интересуются частные коллекционеры. Когда музей рушится от ветхости, директор начинает продавать принадлежащие государству экспонаты и на вырученные деньги отправляет лечиться больную дочку сотрудницы музея. Также в новелле говорится о разобщенности людей в современном мире, невозможности общаться, об одиночестве.
Вторая новелла — «Чайка» — рассказывает о сельской девушке, работающей посудомойкой в курортном пансионате. Она очарована блеском гламура, миром кино и шоу-бизнеса. Она потеряла реальные ориентиры в жизни, запуталась и не может найти выход.
Третья история — «Инжир» — рассказывает о морском офицере, уволенном из Черноморского флота по программе сокращения вооруженных сил. Он, так же как и остальные герои, потерял смысл своего существования и уезжает на поезде в поисках нового. Но окружающий мир говорит ему, что смысла нет, кругом ужас и пустота. Но все же, хоть у героев этих историй и нет выхода, финал третьей новеллы, который является одновременно и финалом фильма, дает надежду. Больная девочка, дочка сотрудницы музея, едет в Москву на операцию в одном поезде с офицером.

Источник/Качество: SATRip
Формат: AVI
Видео кодек: XviD
Аудио кодек: MP3
Видео: Xvid 704x384 25.00fps 1499 Kbps
Аудио: MPEG Audio Layer 3 48000Hz stereo 128kbps
General
Format : AVI
Format/Info : Audio Video Interleave
File size : 1.00 GiB
Duration : 1h 27mn
Overall bit rate : 1 637 Kbps
Writing application : VirtualDubMod 1.5.10.2 (build 2540/release)
Writing library : VirtualDub build 29808/release
Video
ID : 0
Format : MPEG-4 Visual
Format profile : Advanced [email protected]
Format settings, BVOP : 2
Format settings, QPel : No
Format settings, GMC : No warppoints
Format settings, Matrix : Default (H.263)
Muxing mode : Packed bitstream
Codec ID : XVID
Codec ID/Hint : XviD
Duration : 1h 27mn
Bit rate : 1 499 Kbps
Width : 704 pixels
Height : 384 pixels
Display aspect ratio : 16:9
Frame rate : 25.000 fps
Color space : YUV
Chroma subsampling : 4:2:0
Bit depth : 8 bits
Scan type : Progressive
Compression mode : Lossy
Bits/(Pixel*Frame) : 0.222
Stream size : 942 MiB (92%)
Writing library : XviD 63
Audio
ID : 1
Format : MPEG Audio
Format version : Version 1
Format profile : Layer 3
Mode : Joint stereo
Mode extension : MS Stereo
Codec ID : 55
Codec ID/Hint : MP3
Duration : 1h 27mn
Bit rate mode : Constant
Bit rate : 128 Kbps
Channel(s) : 2 channels
Sampling rate : 48.0 KHz
Compression mode : Lossy
Stream size : 80.4 MiB (8%)
Alignment : Aligned on interleaves
Interleave, duration : 40 ms (1.00 video frame)
Interleave, preload duration : 504 ms
Download / Скачать

Хотите скачать бесплатно? Зарегистрируйтесь на сайте (ссылка на регистрацию). Pirat.ca - самый быстрый торрент трекер в рунете!

Как скачивать  ·   Что такое торрент  ·   Рейтинг и ограничения

Пост 19-Апр-2012 18:22 (спустя 2 часа)

Топик был перенесен из форума Наше Кино в форум Российские фильмы

Linnan
 

xxxLOGICxxx

Корсар

Пост 19-Апр-2012 23:51 (спустя 7 часов)

[Q] 

[Профиль]  [ЛС] 
Показать сообщения:    
Ответить на тему

Текущее время: Сегодня 01:18

Часовой пояс: GMT + 4



Вы не можете начинать темы
Вы не можете отвечать на сообщения
Вы не можете редактировать свои сообщения
Вы не можете удалять свои сообщения
Вы не можете голосовать в опросах
Вы не можете прикреплять файлы к сообщениям
Вы не можете скачивать файлы

▼ Вниз