ML
     
  Уважаемый Гость!
Вы можете поддержать проект и зарегистрироваться у наших партнеров - онлайн-стратегия MyLands. При регистрации в игре Вы получите код, который сможете активировать после регистрации на pirat.ca и получить 1000 дублонов.

Ваш код:
1a5b0a965618b2c406d4279ec9924ee6282c60cf
 
     

Свидание (Юсуп Бахшиев) [2012 г., комедия, DVDRip] (Лицензия)

Ответить на тему
 
Автор
Сообщение

Пост 22-Апр-2012 11:04

[Q] 

dimkoba

Свидание
Год выпуска: 2012
Мировая премьера: 19 апреля 2012
Российская премьера: 19 апреля 2012, «Централ Партнершип»
Производство: Россия, Студия Kinoburo #1
Жанр: комедия
Продолжительность: 01:23:04
Перевод: Не требуется (Лицензия)
Субтитры: отсутствуют
Режиссер: Юсуп Бахшиев
В ролях
Владимир Кристовский, Екатерина Климова, Сергей Бадюк, Алёна Бабенко, Константин Мурзенко, Андрей Кайков, Григорий Сиятвинда, Нелли Неведина, Ольга Карпович, Геннадий Венгеров
Описание
Молодой, неженатый, преуспевающий хирург Дмитрий Горин по совету сестры назначает свидание ее подруге — привлекательной учительнице Ане Светловой. Прекрасное создание, попав под действие алкоголя, на деловом обеде, столь важном для Дмитрия, теряет над собой контроль, и торжественное мероприятие превращается в кошмар.Сэмпл, КиноПоискИсточник/Качество: DVDRip
Формат: AVI
Видео кодек: XviD
Аудио кодек: MP3
Видео: XviD build 50 672x272 (2.47:1) 25 fps 1034 kbps avg 0.23 bit/pixel
Аудио: MPEG Layer 3 48 kHz 2 ch 128.00 kbps avg
Комедия «Свидание» является своего рода ремейком старого голливудского фильма «Свидание в слепую». В американском варианте главные роли сыграли блистательные Брюс Уиллис и Ким Бейснджер, в отечественной же картине отметились актриса Катерина Климова и исполнитель популярной музыки Владимир Кристовский. Вокалист группы…
Полное имя : D:\загрузка\Svidanie.2012.[Pirat.ca].avi
Формат : AVI
Формат/Информация : Audio Video Interleave
Размер файла : 701 Мбайт
Продолжительность : 1 ч. 23 м.
Общий поток : 1173 Кбит/сек
Программа кодирования : VirtualDubMod 1.5.10.3 | www.virtualdub-fr.org || (build 2550/release)
Библиотека кодирования : VirtualDubMod build 2550/release
Видео
Идентификатор : 0
Формат : MPEG-4 Visual
Профиль формата : Advanced [email protected]
Параметр BVOP формата : 1
Параметр QPel формата : Нет
Параметр GMC формата : Без точки перехода
Параметр матрицы формата : Выборочная
Идентификатор кодека : XVID
Идентификатор кодека/Подсказка : XviD
Продолжительность : 1 ч. 23 м.
Битрейт : 1035 Кбит/сек
Ширина : 672 пикселя
Высота : 272 пикселя
Соотношение сторон : 2,471
Частота кадров : 25,000 кадров/сек
Цветовое пространство : YUV
Субдискретизация насыщенности : 4:2:0
Битовая глубина : 8 бит
Тип развёртки : Прогрессивная
Метод сжатия : С потерями
Бит/(Пиксели*Кадры) : 0.226
Размер потока : 618 Мбайт (88%)
Библиотека кодирования : XviD 1.2.1 (UTC 2008-12-04)
Аудио
Идентификатор : 1
Формат : MPEG Audio
Версия формата : Version 1
Профиль формата : Layer 3
Идентификатор кодека : 55
Идентификатор кодека/Подсказка : MP3
Продолжительность : 1 ч. 23 м.
Вид битрейта : Постоянный
Битрейт : 128 Кбит/сек
Каналы : 2 канала
Частота : 48,0 КГц
Метод сжатия : С потерями
Размер потока : 76,5 Мбайт (11%)
Выравнивание : Соединение по промежуткам
Продолжительность промежутка : 40 мс. (1,00 видеокадр)
Время предзагрузки промежутка : 504 мс.
Библиотека кодирования : LAME3.99
Настройки программы : -m s -V 4 -q 2 -lowpass 17 -b 128
Download / Скачать

Хотите скачать бесплатно? Зарегистрируйтесь на сайте (ссылка на регистрацию). Pirat.ca - самый быстрый торрент трекер в рунете!

Как скачивать  ·   Что такое торрент  ·   Рейтинг и ограничения



Последний раз редактировалось: dimkoba (2012-05-19 12:45), всего редактировалось 3 раз(а)

Пост 22-Апр-2012 11:16 (спустя 12 минут)

Топик был перенесен из форума Художественные фильмы (Зарубежное кино) в форум Новинки (CamRip/TS)

Linnan
 

dimkoba ®

35103

Пост 22-Апр-2012 21:46 (спустя 10 часов)

[Q] 

КОММЕНТЫ И СПС ГДЕ?)

_________________
[Профиль]  [ЛС] 

Krukov_Aleksey

Корсар

Пост 22-Апр-2012 22:14 (спустя 28 минут)

[Q] 

Спасибо бос
[Профиль]  [ЛС] 

Krukov_Aleksey

Корсар

Пост 22-Апр-2012 22:15 (спустя 32 секунды)

[Q] 

Я и не знал
[Профиль]  [ЛС] 

sleandr

Шкипер

Пост 23-Апр-2012 14:52 (спустя 16 часов)

[Q] 

Добрый фильм, приятно было посмотреть.
Для экранки качество весьма неплохое. Спасибо!
[Профиль]  [ЛС] 

Zahar999

Морской Волк

Пост 24-Апр-2012 17:24 (спустя 1 день 2 часа)

[Q] 

качаю , подзырю :)
[Профиль]  [ЛС] 

ежик

Лоцман

Пост 24-Апр-2012 18:37 (спустя 1 час 12 минут)

[Q] 

Спасибо
[Профиль]  [ЛС] 

dimkoba ®

35103

Пост 19-Май-2012 00:16 (спустя 24 дня)

[Q] 

обновил торрент лицензия

_________________
[Профиль]  [ЛС] 

Пост 19-Май-2012 13:09 (спустя 12 часов)

Топик был перенесен из форума Наше Кино в форум Новинки (HD|DVD|BD|TV|SAT|PDTV| - Rips)

erchine
 

майкоп

Лоцман

Пост 22-Май-2012 13:07 (спустя 3 дня)

[Q] 

Посмотрим....
[Профиль]  [ЛС] 

dimkoba ®

35103

Пост 10-Июн-2012 18:04 (спустя 19 дней)

[Q] 

майкоп, смотрите)

_________________
[Профиль]  [ЛС] 

Пост 20-Июн-2012 13:16 (спустя 9 дней)

Топик был перенесен из форума Новинки (HD|DVD|BD|TV|SAT|PDTV| - Rips) в форум Российские фильмы

erchine
 

err0rik

Лоцман

Пост 30-Июн-2012 21:26 (спустя 20 дней)

[Q] 

римейк?
Свидание вслепую / Blind Date
США (1987)
Жанр: комедия, мелодрама
Мировые сборы: $39 321 715
Режиссер: Блейк Эдвардс
Сценарий: Дэйл Лаунер
В ролях: Ким Бэсинджер, Брюс Уиллис, Джон Ларрокетт, Уильям Дэниелс, Джордж Коу, Марк Блум, Фил Хартман, Стефани Фэрэси, Alice Hirson, Грэхэм Старк
Производство: Delphi V Productions / ML Delphi Premier Productions / TriStar Pictures
Длительность: 95 мин
Уолтер Дэвис — трудоголик, и вполне естественно, что все свое внимание он уделяет работе, а не личной жизни или внешности. Для очень важной деловой встречи в ресторане с новым партнером из Японии, Уолтеру потребовалась спутница.
Его брат посоветовал взять с собой очаровательную Надю, кузину его жены. Но есть одно но: Наде нельзя пить… совсем! К сожалению, это предупреждение Уолтер пропустил мимо уше
[Профиль]  [ЛС] 

dimkoba ®

35103

Пост 30-Июн-2012 22:53 (спустя 1 час 27 минут)

[Q] 

err0rik, рецензию читай конечено да

_________________
[Профиль]  [ЛС] 
Показать сообщения:    
Ответить на тему

Текущее время: Сегодня 23:53

Часовой пояс: GMT + 4



Вы не можете начинать темы
Вы не можете отвечать на сообщения
Вы не можете редактировать свои сообщения
Вы не можете удалять свои сообщения
Вы не можете голосовать в опросах
Вы не можете прикреплять файлы к сообщениям
Вы не можете скачивать файлы

▼ Вниз