ML
     
  Уважаемый Гость!
Вы можете поддержать проект и зарегистрироваться у наших партнеров - онлайн-стратегия MyLands. При регистрации в игре Вы получите код, который сможете активировать после регистрации на pirat.ca и получить 1000 дублонов.

Ваш код:
4399ab8611ee7f8a22949d2ee7634160dd2db7e0
 
     

Двое (Анатолий Матешко) [2010 г., военный, DVDRip] (Лицензия)

Ответить на тему
 
Автор
Сообщение

Пост 24-Апр-2012 02:14

[Q] 

zyyx

--Двое-- Год выпуска: 2010
Мировая премьера: 9 мая 2010
Дата выхода DVD: 26 апреля 2012, «New Dream media»
Производство: Россия, Украина
Жанр: военный
Продолжительность: 01:28:38
Перевод: Не требуется [Лицензия]
Режиссер: Анатолий Матешко
В ролях: Андрей Мерзликин, Сергей Калантай, Олеся Власова, Сергей Мищенко
Описание: Партизаны получают задание захватить на глухой лесной дороге новый шифровальный аппарат немцев. В результате ожесточенного боя гибнут почти все немцы и партизаны. В живых остается только офицер-шифровальщик Герберт и молодой партизан Алексей Бурьян.
Источник/Качество: DVDRip | Сэмпл
Формат: AVI
Видео кодек: XviD
Аудио кодек: AC3
Видео: 720x400 (1.80:1), 25 fps, XviD build 47, 1889 kbps avg, 0.26 bit/pixel
Аудио: 48 kHz, AC3 Dolby Digital, 3/2 (L,C,R,l,r) + LFE ch, 448.00 kbps avg
General
Complete name : E:\Dvoe.2010.O.DVDRip..avi
Format : AVI
Format/Info : Audio Video Interleave
File size : 1.45 GiB
Duration : 1h 28mn
Overall bit rate : 2 348 Kbps
Writing application : VirtualDubMod 1.5.10.2 (build 2540/release)
Video
ID : 0
Format : MPEG-4 Visual
Format profile : Advanced [email protected]
Format settings, BVOP : 2
Format settings, QPel : No
Format settings, GMC : No warppoints
Format settings, Matrix : Custom
Codec ID : XVID
Codec ID/Hint : XviD
Duration : 1h 28mn
Bit rate : 1 890 Kbps
Width : 720 pixels
Height : 400 pixels
Display aspect ratio : 16:9
Frame rate : 25.000 fps
Color space : YUV
Chroma subsampling : 4:2:0
Bit depth : 8 bits
Scan type : Progressive
Compression mode : Lossy
Bits/(Pixel*Frame) : 0.262
Stream size : 1.17 GiB (81%)
Writing library : XviD 1.2.0.dev47 (UTC 2006-11-01)
Audio
ID : 1
Format : AC-3
Format/Info : Audio Coding 3
Mode extension : CM (complete main)
Codec ID : 2000
Duration : 1h 28mn
Bit rate mode : Constant
Bit rate : 448 Kbps
Channel(s) : 6 channels
Channel positions : Front: L C R, Side: L R, LFE
Sampling rate : 48.0 KHz
Bit depth : 16 bits
Compression mode : Lossy
Stream size : 284 MiB (19%)
Alignment : Split accross interleaves
Interleave, duration : 40 ms (1.00 video frame)
Interleave, preload duration : 500 ms



Download / Скачать

Хотите скачать бесплатно? Зарегистрируйтесь на сайте (ссылка на регистрацию). Pirat.ca - самый быстрый торрент трекер в рунете!

Как скачивать  ·   Что такое торрент  ·   Рейтинг и ограничения

Gazeman

Морской Волк

Пост 24-Апр-2012 03:52 (спустя 1 час 38 минут)

[Q] 

отличный фильм

_________________
Не секрет, что "чистая" система - это стабильная система.Всегда используйте ТОЛЬКО чистые оригинальные системы Microsoft Windows!
Лишь на свободе жить любви дано.
[Профиль]  [ЛС] 

baltimor337

Корсар

Пост 24-Апр-2012 09:10 (спустя 5 часов)

[Q] 

[Профиль]  [ЛС] 

Пост 24-Апр-2012 10:38 (спустя 1 час 27 минут)

Топик был перенесен из форума Наше Кино в форум Российские фильмы

Linnan
 

Hausser

Гроза морей

Пост 14-Май-2012 20:20 (спустя 20 дней)

[Q] 

Фильм мутняк.
[Профиль]  [ЛС] 

FeudorM

Корсар

Пост 19-Июн-2012 19:52 (спустя 1 месяц 4 дня)

[Q] 

[Профиль]  [ЛС] 
Показать сообщения:    
Ответить на тему

Текущее время: Сегодня 10:45

Часовой пояс: GMT + 4



Вы не можете начинать темы
Вы не можете отвечать на сообщения
Вы не можете редактировать свои сообщения
Вы не можете удалять свои сообщения
Вы не можете голосовать в опросах
Вы не можете прикреплять файлы к сообщениям
Вы не можете скачивать файлы

▼ Вниз