ML
     
  Уважаемый Гость!
Вы можете поддержать проект и зарегистрироваться у наших партнеров - онлайн-стратегия MyLands. При регистрации в игре Вы получите код, который сможете активировать после регистрации на pirat.ca и получить 1000 дублонов.

Ваш код:
4399ab8611ee7f8a22949d2ee7634160dd2db7e0
 
     

Капитаны (Геннадий Островский) [2010 г., Комедия, DVDRip]

Ответить на тему
 
Автор
Сообщение

Пост 25-Апр-2012 14:14

[Q] 

genkasper

Капитаны Информация о фильме
Год выпуска: 2010
Жанр: Комедия
Выпущено: Россия / ВВП Альянс
Продолжительность: 01:15:06
Режиссер: Геннадий Островский
В ролях: Александр Яценко, Мария Данилюк, Федор Лавров, Мадлен Джабраилова, Алексей Филимонов, Максим Матвеев, Серафима Огарёва, Евгения Симонова, Константин Желдин, Глеб Смирнов и др.

Описание
Эта история рассказывает о двух одиноких и чем-то похожих людях, хотя один из них молод, а другой стар. Один из них вор-неудачник, который вламывается в темную и, как он думает, покинутую в этот новогодний вечер квартиру. А другой в это время в ней вешается, от одиночества и чувства собственной ненужности. И о том, что происходит с каждым из них в эту волшебную ночь, смешное и трагичное, абсурдное и невероятное; как эта одинокая пустая квартира вопреки и воле хозяина, и воле вора, застрявшего в ней на это время, наполняется жизнью, шумом и светом, людьми, персонажами: девушкой, в которую вор влюбляется, милиционером, который влюбляется в девушку, женихом девушки, с которым она в ссоре, ее мамой, приехавшей отмечать к девушке Новый год из другого города с сестрой и кошкой - и как все эти персонажи оказываются вовлечены в одну общую историю с перепутанной елкой, и как каждый в эту ночь находит свое счастье, потому что иначе и быть не может. Кроме вора, благодаря которому все это и происходит, впрочем, то, что с ним происходит в эту ночь, и те поступки, которые он совершает, благодаря или вопреки самому себе, - это и есть его надежда на лучшее.

Источник/Качество: DVDRip
Формат: AVI
Видео кодек: XviD
Аудио кодек: AC3
Видео: 704x400 (1.76:1), 25 fps, XviD build 65 ~2389 kbps avg, 0.34 bit/pixel
Аудио: 48 kHz, AC3 Dolby Digital, 2/0 (L,R) ch, ~224 kbps
General
Complete name : kapitani.2010.dvdrip.1450mb.by.riperrr.avi
Format : AVI
Format/Info : Audio Video Interleave
File size : 1.38 GiB
Duration : 1h 15mn
Overall bit rate : 2 624 Kbps
Movie name : kapitani.2010.dvdrip.1450mb.by.riperrr
Writing application : VirtualDubMod 1.5.10.3 | www.virtualdub-fr.org || (build 2550/release)
Copyright : riperrr [RG Allfilms pirat.ca]
Video
ID : 0
Format : MPEG-4 Visual
Format profile : Advanced [email protected]
Format settings, BVOP : 1
Format settings, QPel : No
Format settings, GMC : No warppoints
Format settings, Matrix : Custom
Codec ID : XVID
Codec ID/Hint : XviD
Duration : 1h 15mn
Bit rate : 2 390 Kbps
Width : 704 pixels
Height : 400 pixels
Display aspect ratio : 16:9
Frame rate : 25.000 fps
Color space : YUV
Chroma subsampling : 4:2:0
Bit depth : 8 bits
Scan type : Progressive
Compression mode : Lossy
Bits/(Pixel*Frame) : 0.339
Stream size : 1.25 GiB (91%)
Writing library : XviD 65
Audio
ID : 1
Format : AC-3
Format/Info : Audio Coding 3
Mode extension : CM (complete main)
Codec ID : 2000
Duration : 1h 15mn
Bit rate mode : Constant
Bit rate : 224 Kbps
Channel(s) : 2 channels
Channel positions : Front: L R
Sampling rate : 48.0 KHz
Bit depth : 16 bits
Compression mode : Lossy
Stream size : 120 MiB (9%)
Alignment : Split accross interleaves
Interleave, duration : 40 ms (1.00 video frame)
Interleave, preload duration : 500 ms
Download / Скачать

Хотите скачать бесплатно? Зарегистрируйтесь на сайте (ссылка на регистрацию). Pirat.ca - самый быстрый торрент трекер в рунете!

Как скачивать  ·   Что такое торрент  ·   Рейтинг и ограничения

Пост 25-Апр-2012 14:40 (спустя 25 минут)

Топик был перенесен из форума Наше Кино в форум Российские фильмы

erchine
 

CHARLI2236

1089

Пост 20-Ноя-2012 01:11 (спустя 6 месяцев 24 дня)

[Q] 

спасибо

_________________
[Профиль]  [ЛС] 

Евгений Чередников

Морской Волк

Пост 14-Фев-2014 00:52 (спустя 1 год 2 месяца)

[Q] 

Спасибо!!! Раздающему респект!

_________________
[Профиль]  [ЛС] 

tubuc

Корсар

103

Пост 15-Мар-2014 13:59 (спустя 1 месяц 1 день)

[Q] 

Забавная комедия Автору респект!!!
[Профиль]  [ЛС] 
Показать сообщения:    
Ответить на тему

Текущее время: Сегодня 10:44

Часовой пояс: GMT + 4



Вы не можете начинать темы
Вы не можете отвечать на сообщения
Вы не можете редактировать свои сообщения
Вы не можете удалять свои сообщения
Вы не можете голосовать в опросах
Вы не можете прикреплять файлы к сообщениям
Вы не можете скачивать файлы

▼ Вниз