ML
     
  Уважаемый Гость!
Вы можете поддержать проект и зарегистрироваться у наших партнеров - онлайн-стратегия MyLands. При регистрации в игре Вы получите код, который сможете активировать после регистрации на pirat.ca и получить 1000 дублонов.

Ваш код:
59354507ba913a0948d1a8f2e30f2e04c4cd7b9b
 
     

Ржевский против Наполеона (Марюс Вайсберг) [2012 г., Комедия, DVDRip] [Лицензия]

Ответить на тему
 
Автор
Сообщение

Пост 26-Апр-2012 10:23

[Q] 

genkasper

Ржевский против Наполеона Информация о фильме
Год выпуска: 2012
Производство: Россия
Жанр: Комедия
Продолжительность: 01:19:44
Перевод: Не требуется [Лицензия]
Субтитры: отсутствуют
Режиссер: Марюс Вайсберг
В ролях
Павел Деревянко, Владимир Зеленский, Светлана Ходченкова, Михаил Ефремов, Марат Башаров, Евгений Кошевой, Жан-Клод Ван Дамм, Анна Семенович, Анфиса Чехова, Михаил Галустян

Описание
Чтобы развеять скуку, Наполеон Бонапарт затеял мировую войну. Не пропуская ни одной юбки, он оказывается со своей армией у ворот Первопрестольной. Русские полководцы решают внедрить к нему неприступную красавицу, la femme fatal, чтобы отвлечь узурпатора от захватнической деятельности. Только какая настоящая женщина устоит перед обаянием этого великого бабника? Ненастоящая!!! В смысле — переодетый мужчина! И такой мужчина есть — поручик Ржевский…



Источник/Качество: DVDRip
Формат: AVI
Видео кодек: XviD
Аудио кодек: MP3
Видео: 704x304 (2.32:1), 25 fps, XviD build 65 ~1099 kbps avg, 0.20 bit/pixel
Аудио: 48 kHz, MPEG Layer 3, 2 ch, ~192.00 kbps avg
General
Complete name : rzhevskyi.provit.napoleona.2011.dvdrip.745mb.by.riperrr.avi
Format : AVI
Format/Info : Audio Video Interleave
File size : 742 MiB
Duration : 1h 19mn
Overall bit rate : 1 302 Kbps
Writing application : VirtualDubMod 1.5.10.3 | www.virtualdub-fr.org || (build 2550/release)
Writing library : VirtualDubMod build 2550/release
Video
ID : 0
Format : MPEG-4 Visual
Format profile : Advanced [email protected]
Format settings, BVOP : 1
Format settings, QPel : No
Format settings, GMC : No warppoints
Format settings, Matrix : Custom
Codec ID : XVID
Codec ID/Hint : XviD
Duration : 1h 19mn
Bit rate : 1 100 Kbps
Width : 704 pixels
Height : 304 pixels
Display aspect ratio : 2.35:1
Frame rate : 25.000 fps
Color space : YUV
Chroma subsampling : 4:2:0
Bit depth : 8 bits
Scan type : Progressive
Compression mode : Lossy
Bits/(Pixel*Frame) : 0.206
Stream size : 627 MiB (85%)
Writing library : XviD 65
Audio
ID : 1
Format : MPEG Audio
Format version : Version 1
Format profile : Layer 3
Codec ID : 55
Codec ID/Hint : MP3
Duration : 1h 19mn
Bit rate mode : Constant
Bit rate : 192 Kbps
Channel(s) : 2 channels
Sampling rate : 48.0 KHz
Compression mode : Lossy
Stream size : 109 MiB (15%)
Alignment : Aligned on interleaves
Interleave, duration : 40 ms (1.00 video frame)
Interleave, preload duration : 504 ms
Writing library : LAME3.98r
Encoding settings : -m s -V 4 -q 0 -lowpass 18.6 -b 192
Download / Скачать

Хотите скачать бесплатно? Зарегистрируйтесь на сайте (ссылка на регистрацию). Pirat.ca - самый быстрый торрент трекер в рунете!

Как скачивать  ·   Что такое торрент  ·   Рейтинг и ограничения

NightWolfMaster

Штурман

Пост 26-Апр-2012 10:31 (спустя 7 минут)

[Q] 

такой бред

_________________
[Профиль]  [ЛС] 

Пост 26-Апр-2012 10:40 (спустя 9 минут)

Топик был перенесен из форума Наше Кино в форум Российские фильмы

erchine
 

ivan836

Морской Волк

Пост 26-Апр-2012 11:27 (спустя 56 минут)

[Q] 

[Профиль]  [ЛС] 

agnifire

Корсар

Пост 28-Апр-2012 19:48 (спустя 2 дня 8 часов)

[Q] 

[Профиль]  [ЛС] 

Evgeniy3102

Корсар

3

Пост 30-Апр-2012 10:13 (спустя 1 день 14 часов)

[Q] 

[Профиль]  [ЛС] 

Cap Flint

Морской Волк

194

Пост 03-Май-2012 09:27 (спустя 2 дня 23 часа)

[Q] 

Фильм - полный бред. Раздающему за труд - спасибо.

_________________
[Профиль]  [ЛС] 
Показать сообщения:    
Ответить на тему

Текущее время: Сегодня 16:11

Часовой пояс: GMT + 4



Вы не можете начинать темы
Вы не можете отвечать на сообщения
Вы не можете редактировать свои сообщения
Вы не можете удалять свои сообщения
Вы не можете голосовать в опросах
Вы не можете прикреплять файлы к сообщениям
Вы не можете скачивать файлы

▼ Вниз