ML
     
  Уважаемый Гость!
Вы можете поддержать проект и зарегистрироваться у наших партнеров - онлайн-стратегия MyLands. При регистрации в игре Вы получите код, который сможете активировать после регистрации на pirat.ca и получить 1000 дублонов.

Ваш код:
69f316be79867e9bf99caee9682d20bb11964507
 
     

Отдам жену в хорошие руки (Дмитрий Брусникин) [2012 г., мелодрама, SATRip]

Ответить на тему
 
Автор
Сообщение

Пост 27-Апр-2012 20:10

[Q] 

UA4HQW

Флибустьер

Отдам жену в хорошие руки
Год выпуска: 2012
Жанр: мелодрама
Продолжительность: 01:29:57
Режиссер: Дмитрий Брусникин
В ролях: Григорий Антипенко, Анастасия Кащеева, Серафима Низовская, Валерий Трошин, Александра Урсуляк, Дарья Калмыкова, Борис Дьяченко
Описание: Жизнь удалась – так можно оценить профессиональные и семейные высоты, которых достиг наш герой Женя в свои неполные 40 лет. Любимая работа, умница жена, чудесная дочь. Все рухнуло и потеряло ценность в один миг, виной всему наваждение, страсть, безумие, выхода из которого, кажется, нет. У наваждения есть имя – красавица Ирина, одинокая учительница музыки, которая готова ответить Жене взаимностью. После долгих терзаний и попыток бороться с собой, Женя бросается в омут страсти с головой. Но, как известно, за удовольствием следует расплата, и придет тот день, когда героям придется сделать решающий выбор.
Источник/Качество: SATRip
Формат: AVI
Видео кодек: XviD
Аудио кодек: MP3
Видео: 720x400 (1.80:1), 25 fps, XviD MPEG-4 ~1743 kbps avg, 0.24 bit/pixel
Аудио: 48 kHz, MPEG Layer 3, 2 ch, ~128.00 kbps avg
Общее
Полное имя : Отдам жену в хорошие руки.avi
Формат : AVI
Формат/Информация : Audio Video Interleave
Размер файла : 1,18 Гбайт
Продолжительность : 1 ч. 29 м.
Общий поток : 1881 Кбит/сек
Библиотека кодирования : VirtualDub build 32593/release
Видео
Идентификатор : 0
Формат : MPEG-4 Visual
Профиль формата : Advanced [email protected]
Параметр BVOP формата : 2
Параметр QPel формата : Нет
Параметр GMC формата : Без точки перехода
Параметр матрицы формата : Default (H.263)
Режим смешивания : Сжатый битовый поток
Идентификатор кодека : XVID
Идентификатор кодека/Подсказка : XviD
Продолжительность : 1 ч. 29 м.
Битрейт : 1743 Кбит/сек
Ширина : 720 пикс.
Высота : 400 пикс.
Соотношение сторон : 16:9
Частота кадров : 25,000 кадр/сек
Цветовое пространство : YUV
Подвыборка цветности : 4:2:0
Битовая глубина : 8 бит
Тип развёртки : Прогрессивная
Метод сжатия : С потерями
Бит/(Пиксели*Кадры) : 0.242
Размер потока : 1,10 Гбайт (93%)
Библиотека кодирования : XviD 64
Аудио
Идентификатор : 1
Формат : MPEG Audio
Версия формата : Version 1
Профиль формата : Layer 3
Режим : Joint stereo
Расширение режима : MS Stereo
Идентификатор кодека : 55
Идентификатор кодека/Подсказка : MP3
Продолжительность : 1 ч. 29 м.
Вид битрейта : Постоянный
Битрейт : 128 Кбит/сек
Каналы : 2 канала
Частота : 48,0 КГц
Метод сжатия : С потерями
Задержка видео : 350 мс.
Размер потока : 82,4 Мбайт (7%)
Выравнивание : Разделение по промежуткам
Продолжительность промежутка : 40 мс. (1,00 видеокадр)
Время предзагрузки промежутка : 500 ms
Download / Скачать

Хотите скачать бесплатно? Зарегистрируйтесь на сайте (ссылка на регистрацию). Pirat.ca - самый быстрый торрент трекер в рунете!

Как скачивать  ·   Что такое торрент  ·   Рейтинг и ограничения

mail478

Штурман

Пост 28-Апр-2012 15:29 (спустя 19 часов)

[Q] 

Или утоплю!
[Профиль]  [ЛС] 

Ryddik

Корсар

5

Пост 29-Апр-2012 00:08 (спустя 8 часов)

[Q] 

[Профиль]  [ЛС] 

Voland57

Корсар

Пост 29-Апр-2012 22:14 (спустя 22 часа)

[Q] 

Спасибо!!!
[Профиль]  [ЛС] 

lexxxis

Штурман

Пост 30-Апр-2012 15:25 (спустя 17 часов)

[Q] 

как фильм? глянуть можно?
[Профиль]  [ЛС] 

mstislaw

Флибустьер

Пост 01-Май-2012 12:01 (спустя 20 часов)

[Q] 

Кто посмотрел, оцените.
[Профиль]  [ЛС] 

Krukov_Aleksey

Корсар

Пост 01-Май-2012 20:34 (спустя 8 часов)

[Q] 

нужно жене показать
[Профиль]  [ЛС] 
Показать сообщения:    
Ответить на тему

Текущее время: Сегодня 14:32

Часовой пояс: GMT + 4



Вы не можете начинать темы
Вы не можете отвечать на сообщения
Вы не можете редактировать свои сообщения
Вы не можете удалять свои сообщения
Вы не можете голосовать в опросах
Вы не можете прикреплять файлы к сообщениям
Вы не можете скачивать файлы

▼ Вниз