ML
     
  Уважаемый Гость!
Вы можете поддержать проект и зарегистрироваться у наших партнеров - онлайн-стратегия MyLands. При регистрации в игре Вы получите код, который сможете активировать после регистрации на pirat.ca и получить 1000 дублонов.

Ваш код:
062e2babcc491faeb40d496cf9a498ac3df6cdd0
 
     

Способ убийства (Олег Гойда) [1993 г., детектив, триллер, DVDRip]

Ответить на тему
 
Автор
Сообщение

Пост 30-Апр-2012 18:10

[Q] 

Linnan

Способ убийства
Год выпуска: 1993
Производство: Россия, Украина
Жанр: детектив, триллер
Продолжительность: 01:03:15
Режиссер: Олег Гойда
В ролях: Евдокия Германова, Регимантас Адомайтис, Алексей Серебряков, Алексей Горбунов, Елена Сотникова, Наталья Шостак, Евгений Князев, Александр Милютин, Антон Гойда, Владимир Заднепровский
Описание: В основе сюжета — два параллельно развивающихся события, в центре которых детектив Стив Карелла. Ему поручено непростое дело: накануне хозяин богатой виллы миллионер Скотт повесился в небольшой комнате без единого окна, предварительно закрывшись изнутри весьма хитроумным способом… В это же время в полицейский участок приходит некая Вирджиния с целью убить самого Кареллу. Ведь он когда-то арестовал ее мужа, и тот умер в тюрьме…

Источник/Качество: DVDRip
Формат: AVI
Видео кодек: DivX
Аудио кодек: AC3
Видео: 704х576, 25 fps, 1701 kbps, 0.168 b/px
Аудио: 448 kbps, 5 ch, 48 КHz
Общее
Полное имя : F:\Загрузки торрента\Sposob ubiystva [pirat.ca].avi
Формат : AVI
Формат/Информация : Audio Video Interleave
Размер файла : 977 Мбайт
Продолжительность : 1 ч. 3 м.
Общий поток : 2159 Кбит/сек
Библиотека кодирования : VirtualDub build 27021/release
Видео
Идентификатор : 0
Формат : MPEG-4 Visual
Параметр BVOP формата : 1
Параметр QPel формата : Нет
Параметр GMC формата : Без точки перехода
Параметр матрицы формата : Default (H.263)
Режим смешивания : Сжатый битовый поток
Идентификатор кодека : DX50
Идентификатор кодека/Подсказка : DivX 5
Продолжительность : 1 ч. 3 м.
Битрейт : 1701 Кбит/сек
Ширина : 704 пикселя
Высота : 576 пикселей
Соотношение сторон : 1,222
Частота кадров : 25,000 кадров/сек
Стандарт вещания : PAL
Цветовое пространство : YUV
Субдискретизация насыщенности : 4:2:0
Битовая глубина : 8 бит
Тип развёртки : Прогрессивная
Метод сжатия : С потерями
Бит/(Пиксели*Кадры) : 0.168
Размер потока : 770 Мбайт (79%)
Библиотека кодирования : DivX 5.2.1 (DrDivX 106) (UTC 2004-09-08)
Аудио
Идентификатор : 1
Формат : AC-3
Формат/Информация : Audio Coding 3
Расширение режима : CM (complete main)
Идентификатор кодека : 2000
Продолжительность : 1 ч. 3 м.
Вид битрейта : Постоянный
Битрейт : 448 Кбит/сек
Каналы : 5 каналов
Расположение каналов : Front: L C R, Side: L R
Частота : 48,0 КГц
Битовая глубина : 16 бит
Метод сжатия : С потерями
Размер потока : 203 Мбайт (21%)
Выравнивание : Соединение по промежуткам
Продолжительность промежутка : 40 мс. (1,00 видеокадр)
Время предзагрузки промежутка : 512 мс.
Download / Скачать

Хотите скачать бесплатно? Зарегистрируйтесь на сайте (ссылка на регистрацию). Pirat.ca - самый быстрый торрент трекер в рунете!

Как скачивать  ·   Что такое торрент  ·   Рейтинг и ограничения

Пост 30-Апр-2012 18:23 (спустя 12 минут)

Топик был перенесен из форума Наше Кино в форум Российские фильмы

genkasper
 
Показать сообщения:    
Ответить на тему

Текущее время: Сегодня 17:43

Часовой пояс: GMT + 4



Вы не можете начинать темы
Вы не можете отвечать на сообщения
Вы не можете редактировать свои сообщения
Вы не можете удалять свои сообщения
Вы не можете голосовать в опросах
Вы не можете прикреплять файлы к сообщениям
Вы не можете скачивать файлы

▼ Вниз